Пропитанный отбеливателем / Soaked in Bleach (Бен Статлер) [2015, США, Детектив, Документальный, Драма, Криминал, Музык, HDTVRip] (DVO)

Ответить на тему
 

Hurracan ®

Стаж: 2 года

Сообщений: 79

Симпатии: 80

Пропитанный отбеливателем / Soaked in Bleach
Страна: США
Жанр: Детектив, Документальный, Драма, Криминал, Музыка
Год выпуска: 2015
Продолжительность: 01:29:26
Перевод: Любительский (двухголосый закадровый)
Cубтитры: нет
Режиссер: Бен Статлер
В ролях: Райан Айнер, Пэт Асанти, Бретт Болл, Джон Болл, Бен Берг, Тор Браун, Тайлер Брайан, Аарон Буркхард, Кейл Клосон
Описание: Фильм исследует возможность того, что смерть Курта Кобейна не была фактическим самоубийством.
Доп. информация:
Сценаристы: Ричард Миддлтон, Бен Статлер, Донни Эйчар
Продюсеры: Ричард Миддлтон, Бен Статлер, Донни Эйчар
Качество видео: HDTVRip
Формат видео: MP4
Видео: MPEG4 Video (H264) 1280x720 23.976fps 1980kbps
Аудио: AAC 44100Hz stereo 151kbps

MediaInfo

General
Complete name : C:\Users\Hurracan\Downloads\Video\Propitannyiy otbelivatelem (2015, HD).mp4
Format : MPEG-4
Format profile : Base Media
Codec ID : isom
File size : 1.34 GiB
Duration : 1h 29mn
Overall bit rate mode : Variable
Overall bit rate : 2 138 Kbps
Writing application : Lavf56.25.101
Video
ID : 1
Format : AVC
Format/Info : Advanced Video Codec
Format profile : [email protected]
Format settings, CABAC : Yes
Format settings, ReFrames : 4 frames
Codec ID : avc1
Codec ID/Info : Advanced Video Coding
Duration : 1h 29mn
Bit rate : 1 980 Kbps
Width : 1 280 pixels
Height : 720 pixels
Display aspect ratio : 16:9
Frame rate mode : Constant
Frame rate : 23.976 fps
Color space : YUV
Chroma subsampling : 4:2:0
Bit depth : 8 bits
Scan type : Progressive
Bits/(Pixel*Frame) : 0.090
Stream size : 1.24 GiB (93%)
Writing library : x264 core 142
Encoding settings : cabac=1 / ref=3 / deblock=1:0:0 / analyse=0x3:0x113 / me=hex / subme=7 / psy=1 / psy_rd=1.00:0.00 / mixed_ref=1 / me_range=16 / chroma_me=1 / trellis=1 / 8x8dct=1 / cqm=0 / deadzone=21,11 / fast_pskip=1 / chroma_qp_offset=-2 / threads=4 / lookahead_threads=1 / sliced_threads=0 / nr=0 / decimate=1 / interlaced=0 / bluray_compat=0 / constrained_intra=0 / bframes=3 / b_pyramid=2 / b_adapt=1 / b_bias=0 / direct=1 / weightb=1 / open_gop=0 / weightp=2 / keyint=24 / keyint_min=2 / scenecut=40 / intra_refresh=0 / rc_lookahead=24 / rc=2pass / mbtree=1 / bitrate=1980 / ratetol=1.0 / qcomp=0.60 / qpmin=0 / qpmax=69 / qpstep=4 / cplxblur=20.0 / qblur=0.5 / ip_ratio=1.40 / aq=1:1.00
Audio
ID : 2
Format : AAC
Format/Info : Advanced Audio Codec
Format profile : LC
Codec ID : 40
Duration : 1h 29mn
Bit rate mode : Variable
Bit rate : 152 Kbps
Maximum bit rate : 192 Kbps
Channel(s) : 2 channels
Channel positions : Front: L R
Sampling rate : 44.1 KHz
Compression mode : Lossy
Stream size : 97.1 MiB (7%)

Скриншоты




Создавать темы 13-Ноя-2015 15:35

[Профиль]  [ЛС] 
Показать сообщения:    
Ответить на тему

Текущее время: 25-Сен 00:34

Часовой пояс: UTC + 5



Вы не можете начинать темы
Вы не можете отвечать на сообщения
Вы не можете редактировать свои сообщения
Вы не можете удалять свои сообщения
Вы не можете голосовать в опросах
Вы не можете прикреплять файлы к сообщениям
Вы не можете скачивать файлы