Вой / Howl (Пол Хайет) [2015, Великобритания, Ужасы, BDRip (VO) (Original Rus)

Ответить на тему
 

Next_1 ®

Стаж: 3 года 11 месяцев

Сообщений: 32

Симпатии: 53

Вой / Howl
Страна: Великобритания
Жанр: Ужасы
Год выпуска: 2015
Продолжительность: 01:32:27
Перевод: Одноголосый закадровый
Cубтитры: нет
Оригинальная аудиодорожка: русский
Режиссер: Пол Хайет
В ролях: Эдвард Спелирс Холли Уэстон Эллиот Кауэн Амит Шах Сэм Гиттинс Шона МакДональд Дункан Престон Аня Марсон Рози Дэй Кэлвин Дин
Описание: На пассажиров ночного поезда нападает неизвестное существо. Теперь они должны держаться вместе, чтобы у них появился шанс дожить до утра.
Доп. информация: Возрастное ограничение 18+
Качество видео: BDRip
Формат видео: MP4
Видео: MPEG4 Video (H264) 1280x536 24fps 1496kbps [V: h264 main L3.1, yuv420p, 1280x536, 149
Аудио: Audio: AAC 48000Hz stereo 165kbps [A: SoundHandler (aac lc, 48000 Hz, stereo, 165 kb/s)]

MediaInfo

Format : MPEG-4
Format profile : Base Media
Codec ID : isom
File size : 1.08 GiB
Duration : 1h 32mn
Overall bit rate mode : Variable
Overall bit rate : 1 666 Kbps
Encoded date : UTC 2015-11-12 16:37:17
Tagged date : UTC 2015-11-12 16:37:17
Writing application : Lavf54.63.104
Video
ID : 1
Format : AVC
Format/Info : Advanced Video Codec
Format profile : [email protected]
Format settings, CABAC : Yes
Format settings, ReFrames : 1 frame
Codec ID : avc1
Codec ID/Info : Advanced Video Coding
Duration : 1h 32mn
Bit rate : 1 500 Kbps
Width : 1 280 pixels
Height : 536 pixels
Display aspect ratio : 2.40:1
Frame rate mode : Constant
Frame rate : 24.000 fps
Color space : YUV
Chroma subsampling : 4:2:0
Bit depth : 8 bits
Scan type : Progressive
Bits/(Pixel*Frame) : 0.091
Stream size : 990 MiB (90%)
Writing library : x264 core 129
Encoding settings : cabac=1 / ref=1 / deblock=1:0:0 / analyse=0x1:0x131 / me=dia / subme=2 / psy=1 / psy_rd=1.00:0.00 / mixed_ref=0 / me_range=16 / chroma_me=1 / trellis=0 / 8x8dct=0 / cqm=0 / deadzone=21,11 / fast_pskip=1 / chroma_qp_offset=0 / threads=4 / lookahead_threads=1 / sliced_threads=0 / nr=0 / decimate=1 / interlaced=0 / bluray_compat=0 / constrained_intra=0 / bframes=0 / weightp=2 / keyint=250 / keyint_min=25 / scenecut=40 / intra_refresh=0 / rc_lookahead=40 / rc=abr / mbtree=1 / bitrate=1500 / ratetol=1.0 / qcomp=0.60 / qpmin=10 / qpmax=51 / qpstep=4 / ip_ratio=1.41 / aq=1:1.00
Encoded date : UTC 2015-11-12 16:37:17
Tagged date : UTC 2015-11-12 16:37:17
Audio
ID : 2
Format : AAC
Format/Info : Advanced Audio Codec
Format profile : LC
Codec ID : 40
Duration : 1h 32mn
Duration_FirstFrame : 64ms
Bit rate mode : Variable
Bit rate : 165 Kbps
Maximum bit rate : 320 Kbps
Channel(s) : 2 channels
Channel positions : Front: L R
Sampling rate : 48.0 KHz
Compression mode : Lossy
Stream size : 109 MiB (10%)
Encoded date : UTC 2015-11-12 16:37:17
Tagged date : UTC 2015-11-12 16:37:17

Скриншоты






Последний раз редактировалось: Next_1 (2015-11-14 12:35), всего редактировалось 2 раз(а)

Создавать темы 13-Ноя-2015 22:50

[Профиль]  [ЛС] 
Показать сообщения:    
Ответить на тему

Текущее время: 21-Сен 09:58

Часовой пояс: UTC + 5



Вы не можете начинать темы
Вы не можете отвечать на сообщения
Вы не можете редактировать свои сообщения
Вы не можете удалять свои сообщения
Вы не можете голосовать в опросах
Вы не можете прикреплять файлы к сообщениям
Вы не можете скачивать файлы