14+ (Андрей Зайцев) [2015, Мелодрама, HDTVRip]

Ответить на тему
 

Next_1 ®

Стаж: 4 года 1 месяц

Сообщений: 32

Симпатии: 53

14+
Жанр: Мелодрама
Год выпуска: 2015
Продолжительность: 01:46:27
Перевод: Профессиональный (дублированный)
Cубтитры: нет
Оригинальная аудиодорожка: русский
Режиссёр: Андрей Зайцев
В ролях: Дмитрий Блохин, Глеб Калюжный, Ульяна Васькович, Ольга Озоллапиня, Ирина Фролова, Шандор Беркеши, Владислав Горячкин, Дмитрий Баринов, Даниил Пикула, Ксения Пахомова
Описание: Это история первой любви в 14 лет, разворачивающаяся в спальном районе большого города. История современных Ромео и Джульетты, живущих и в социальных сетях, и на улице с их жесткими правилами и законами, по которым влюбленные не хотят и не будут играть.
Чтобы быть вместе, главным героям придется преодолеть многое: их школы враждуют между собой, поэтому их любовь — предательство своего района и своей компании. Родители не готовы принять тот факт, что дети стремительно взрослеют и что каждый подросток — личность, имеющий право выбора. Им мешают собственные комплексы и неуверенность в себе, боязнь сделать первый шаг и страх, что тебя не любят и оттолкнут. Но, несмотря на все эти препятствия, настоящая любовь победит всё.
Доп. информация: Рейтинг КиноПоиск.Ru: 8.301 (1451)
Рейтинг IMDb: 6.7 (49)
Качество видео: WEB-DLRip
Формат видео: AVI
Видео: Xvid 720x400 25fps 1699kbps [V: mpeg4 advanced simple profile, yuv420p, 720x400, 1699 kb/s]
Аудио: Dolby AC3 48000Hz stereo 128kbps [A: ac3, 48000 Hz, stereo, 128 kb/s]

MediaInfo

General
Complete name : E:\Торрент\Фильмы и видео\Пиратка\14Plus.2015.O.WEB-DLRip.avi
Format : AVI
Format/Info : Audio Video Interleave
File size : 1.37 GiB
Duration : 1h 46mn
Overall bit rate : 1 838 Kbps
Writing application : VirtualDubMod 1.5.10.3 | www.virtualdub-fr.org || (build 2550/release)
Writing library : VirtualDubMod build 2550/release
Video
ID : 0
Format : MPEG-4 Visual
Format profile : Advanced [email protected]
Format settings, BVOP : 2
Format settings, QPel : No
Format settings, GMC : No warppoints
Format settings, Matrix : Default (MPEG)
Codec ID : XVID
Codec ID/Hint : XviD
Duration : 1h 46mn
Bit rate : 1 700 Kbps
Width : 720 pixels
Height : 400 pixels
Display aspect ratio : 16:9
Frame rate : 25.000 fps
Color space : YUV
Chroma subsampling : 4:2:0
Bit depth : 8 bits
Scan type : Progressive
Compression mode : Lossy
Bits/(Pixel*Frame) : 0.236
Stream size : 1.26 GiB (93%)
Writing library : XviD 1.2.1 (UTC 2008-12-04)
Audio
ID : 1
Format : AC-3
Format/Info : Audio Coding 3
Mode extension : CM (complete main)
Format settings, Endianness : Big
Codec ID : 2000
Duration : 1h 46mn
Bit rate mode : Constant
Bit rate : 128 Kbps
Channel(s) : 2 channels
Channel positions : Front: L R
Sampling rate : 48.0 KHz
Bit depth : 16 bits
Compression mode : Lossy
Stream size : 97.5 MiB (7%)
Alignment : Split accross interleaves
Interleave, duration : 40 ms (1.00 video frame)
Interleave, preload duration : 500 ms

Скриншот c названием фильма

Скриншоты




Создавать темы 14-Ноя-2015 15:53

[Профиль]  [ЛС] 

ElATE

Стаж: 2 года 4 месяца

Сообщений: 19

Симпатии: 39

Next_1, Шапку надо поправить.))
14+ (Андрей Зайцев) [2015, Мелодрама, HDTVRip WEB-DLRip]
14Plus.2015.O.WEB-DLRip.avi
-И постер надобы поменьше сделать.
P.S: Влился в раздачу.

Создавать темы 14-Ноя-2015 17:54

[Профиль]  [ЛС] 

Андрей Варабей

Стаж: 4 года 8 месяцев

Сообщений: 67

Симпатии: 1

Фильм просто класс.Напомнил лихие 90,меж квартальная и меж районная война,когда не можешь без пиз...лей уйти от своей девушки проводив её домой.Фильм чётко показал то чувство когда в 13-14 лет появляется первое и большое чувство любви.всем советую посмотреть,не пожалеете.

Создавать темы 28-Ноя-2015 21:21

[Профиль]  [ЛС] 
Показать сообщения:    
Ответить на тему

Текущее время: 19-Ноя 07:57

Часовой пояс: UTC + 5



Вы не можете начинать темы
Вы не можете отвечать на сообщения
Вы не можете редактировать свои сообщения
Вы не можете удалять свои сообщения
Вы не можете голосовать в опросах
Вы не можете прикреплять файлы к сообщениям
Вы не можете скачивать файлы