Чудо в камере №7 / Miracle in Cell No.7 (Ли Хван-Кён / Lee Hwan-Kyung) [2012, Южная Корея, драма, комедия, HDRip] (DVO) (Sub Rus)

Ответить на тему
 

Jasur S ®

Стаж: 4 года 8 месяцев

Сообщений: 110

Симпатии: 111


-
Чудо в камере №7 / Miracle in Cell No.7
-
Страна: Южная Корея
Жанр: драма, комедия
Год выпуска: 2012
Продолжительность: 02:07:26
Перевод: Любительский (двухголосый закадровый)
Cубтитры: русские
Оригинальная аудиодорожка: корейский
-
Режиссер: Ли Хван-Кён / Lee Hwan-Kyung
В ролях: Ryoo Seung-Ryong - Yong-Goo
Park Shin-Hye - Ye-Seung (adult)
Kal So-Won - Ye-Seung (child)
Oh Dal-Su - So Yang-Ho
Jeong Man-Sik - Shin Bong-Sik
Описание: А вы в детстве смотрели Сейлор Мун?
"Я борец за добро и справедливость, прекрасный воин Сейлор Мун. И я несу возмездие во имя луны."
Возмездие... а всегда ли оно бывает справедливым?
Это фильм о нежной любви между отцом и его маленькой дочерью. И о том, что каждый из нас может стать Сейлор Мун.
-
Доп. информация: Перевод осуществляла команда фансаб-группы "Альянс"
Переводчик: Бонист
Редактор: Xiao Mei
Озвучивание Ворон и Элейн
Качество видео: HDRip
Формат видео: AVI
Видео: Xvid 720x304 23.976fps 1534kbps [V: mpeg4 advanced simple profile, yuv420p, 720x304, 1534 kb/s]
Аудио 1: Dolby AC3 48000Hz 6ch 448kbps [A: ac3, 48000 Hz, 5.1, 448 kb/s]
Аудио 2: Dolby AC3 48000Hz 6ch 448kbps [A: ac3, 48000 Hz, 5.1, 448 kb/s]

MediaInfo

General
Complete name : E:\Movies\Miracle in Cell No. 7 (2012)\Miracle.in.Cell.No.7.2012.HDRip.RU.KO.BTT-TEAM.avi
Format : AVI
Format/Info : Audio Video Interleave
Format profile : OpenDML
File size : 2.18 GiB
Duration : 2h 7mn
Overall bit rate : 2 449 Kbps
Writing application : VirtualDubMod 1.5.10.2 (build 2542/release)
Writing library : VirtualDubMod build 2542/release
Video
ID : 0
Format : MPEG-4 Visual
Format profile : Advanced [email protected]
Format settings, BVOP : 2
Format settings, QPel : No
Format settings, GMC : No warppoints
Format settings, Matrix : Default (H.263)
Codec ID : XVID
Codec ID/Hint : XviD
Duration : 2h 7mn
Bit rate : 1 535 Kbps
Width : 720 pixels
Height : 304 pixels
Display aspect ratio : 2.35:1
Frame rate : 23.976 fps
Color space : YUV
Chroma subsampling : 4:2:0
Bit depth : 8 bits
Scan type : Progressive
Compression mode : Lossy
Bits/(Pixel*Frame) : 0.292
Stream size : 1.37 GiB (63%)
Writing library : XviD 1.2.1 (UTC 2008-12-04)
Audio #1
ID : 1
Format : AC-3
Format/Info : Audio Coding 3
Mode extension : CM (complete main)
Format settings, Endianness : Big
Codec ID : 2000
Duration : 2h 7mn
Bit rate mode : Constant
Bit rate : 448 Kbps
Channel(s) : 6 channels
Channel positions : Front: L C R, Side: L R, LFE
Sampling rate : 48.0 KHz
Bit depth : 16 bits
Compression mode : Lossy
Stream size : 409 MiB (18%)
Alignment : Split accross interleaves
Interleave, duration : 42 ms (1.00 video frame)
Interleave, preload duration : 500 ms
Audio #2
ID : 2
Format : AC-3
Format/Info : Audio Coding 3
Mode extension : CM (complete main)
Format settings, Endianness : Big
Codec ID : 2000
Duration : 2h 7mn
Bit rate mode : Constant
Bit rate : 448 Kbps
Channel(s) : 6 channels
Channel positions : Front: L C R, Side: L R, LFE
Sampling rate : 48.0 KHz
Bit depth : 16 bits
Compression mode : Lossy
Stream size : 409 MiB (18%)
Alignment : Split accross interleaves
Interleave, duration : 42 ms (1.00 video frame)
Interleave, preload duration : 500 ms

Скриншоты










Создавать темы 14-Ноя-2015 18:27

[Профиль]  [ЛС] 

Jasur S ®

Стаж: 4 года 8 месяцев

Сообщений: 110

Симпатии: 111

Драма очень трагична по своему сюжету, надеюсь каждый кто просмотрит, начнет смотреть на мир чуть с другого угла...Всем приятного просмотра..:)


Последний раз редактировалось: Jasur S (2015-11-14 19:10), всего редактировалось 1 раз

Создавать темы 14-Ноя-2015 18:45

[Профиль]  [ЛС] 

Jasur S ®

Стаж: 4 года 8 месяцев

Сообщений: 110

Симпатии: 111

Следующий релиз будет 21.11.2015 "Sad movie" (2005)

Создавать темы 14-Ноя-2015 19:05

[Профиль]  [ЛС] 

FoxSage

Стаж: 4 года 5 месяцев

Сообщений: 197

Симпатии: 19

Jasur S, привет еще раз. Я решил сюда написать. Помоги найти плз.
Я давно просто ищу фильм, но названия непомню. Я его на тнт в 2004 году смотрел.
Помню сюжет, но так и его не досмотрел до конца. Может быть ты его узнаешь. Этот фильм возможно Китайский.
Сюжет: Действие происходит в наши дни. Есть один бизнесмен (строительный) и у него есть жена и 2-3 детей.
Жена очень невкусно готовила. И чтоб ее не растраивать, они ей правду не говорили, но она обо всем догадовалась.
Она готовит, дети и муж делают вид, что они типо едят, выкидывают быстро еду и берут быстро еду из фаст фуда и кушают.
Ну и они по всякому старались есть не дома или пока жена не смотрит на них и т.д. Вобщем холодильник был полон почти не притронутой невкусной едой.
Еще запомнился момент, когда строитель в знойную жару ченил там у них что-то, приходит вот этот бизнесмен, хочет расплатиться, и вдруг приходит его жена с соком в руке и угащает этого строителя. И тут муж ее вспоминает, как его жена все утро эти лимоны давила в соковыжималке, без добовления сахара) Ну можно понять, что случилось с этим строителем.
Но однажды, в их дом поздно ночью прокрадывается домушник. Он как обычно крадет что непоподя, ценные вещи и т.д.
И тут этот домушник проголодался и решил залесть в их холодильник.
Ему так понравилась эта стрепня, что он каждый день туда начал заглядовать по ночам.
Жене бизнесмена это очень понравилось. Она начала специально для него готовить и остовлять в холодильнике.
Они начали даже переписоваться записочками через этот холодильник (типо приготовь в следующий раз это, а то было вкусно и т.д.).
Муж(бизнесмен) обо всем узнал. Начал ставить ловушки вокруг дома, запер как следует, на коде холодильник, обвел его цепью на замок и т.д. А жена продолжала готовить и ставить все в холодильник. Все обо всем догадывались, но друг другу ничего не говорили
Домушника интересовал только этот холодиьник. И он каждую ночь заглядовал туда, чтобы только взломать этот холодильник.
Чем эта история закончилась, я не знаю :( Поэтому прошу Jasur S, , если знаешь, то залить или хотябы название фильма сказать. Очень прошу.
P.s. наверное это мое самое большое сообщение :)

Создавать темы 15-Ноя-2015 18:45

[Профиль]  [ЛС] 

Jasur S ®

Стаж: 4 года 8 месяцев

Сообщений: 110

Симпатии: 111

FoxSage, я постарался поискать но увы... безрезультатно.

Создавать темы 16-Ноя-2015 20:08

[Профиль]  [ЛС] 

FoxSage

Стаж: 4 года 5 месяцев

Сообщений: 197

Симпатии: 19

bilsyn47 (один из пользователей трекера) узнал фильм и прислал название мне в лс. Спасибо ему большое.
Фильм называется: укради, если сможешь
Jasur S, плиз. Если тебе не сложно (если есть анлим), то залей плиз. Очень прошу.

Создавать темы 19-Ноя-2015 23:01

[Профиль]  [ЛС] 

Jasur S ®

Стаж: 4 года 8 месяцев

Сообщений: 110

Симпатии: 111

FoxSage, Хорошо) Думаю релиз оформлю 05.12.2015. Как только оформлю, скину ссылку в л.с.))

Создавать темы 20-Ноя-2015 13:32

[Профиль]  [ЛС] 

FoxSage

Стаж: 4 года 5 месяцев

Сообщений: 197

Симпатии: 19

Jasur S, спасибо огромное. Буду ждать.
Крестик поставил в календаре на 5 декабря)

Создавать темы 20-Ноя-2015 18:38

[Профиль]  [ЛС] 
Показать сообщения:    
Ответить на тему

Текущее время: 15-Дек 18:59

Часовой пояс: UTC + 5



Вы не можете начинать темы
Вы не можете отвечать на сообщения
Вы не можете редактировать свои сообщения
Вы не можете удалять свои сообщения
Вы не можете голосовать в опросах
Вы не можете прикреплять файлы к сообщениям
Вы не можете скачивать файлы