Агенты А.Н.К.Л. / The Man from U.N.C.L.E. (Гай Ричи) [2015, США, боевик, комедия, приключения, WEB-DLRip] [iTunes] (Dub : iTunes) ( Original Eng)

Ответить на тему
 

mp1988 ®

Стаж: 6 лет 9 месяцев

Сообщений: 607

Симпатии: 971

Агенты А.Н.К.Л. / The Man from U.N.C.L.E.
Страна: США
Жанр: боевик, комедия, приключения
Год выпуска: 2015
Продолжительность: 01:56:27
Перевод: Профессиональный (дублированный) iTunes
Cубтитры: Русские Вшитые на немецкую и итальянскую речь
Оригинальная аудиодорожка: английский
Режиссер: Гай Ричи
В ролях: Генри Кавилл, Арми Хаммер, Алисия Викандер, Элизабет Дебики, Хью Грант, Лука Кальвани, Сильвестр Грот, Джаред Харрис, Кристиан Беркель, Миша Кузнецов, Гай Уильямс, Марианна Ди Мартино, Джулиан Майкл Деустер, Андреа Каглиши, Риккардо Калваниз
Описание: Наполеон Соло — агент ЦРУ, на счету которого огромное количество успешно проведенных операций. Он считается одним из лучших секретных агентов во всем мире, и с ним может сравниться только один человек — самый молодой и перспективный агент КГБ, Илья Курякин. Их противостояние переросло в настоящую войну, в которой никто не собирается уступать. Однако обстоятельства складываются так, что непримиримые враги вынуждены стать напарниками. Это происходит после того как спецслужбы двух стран обнаруживают международную преступную организацию, которой удалось создать ядерную бомбу…-- --Субтитры:Русские Вшитые на немецкую и итальянскую речь
Качество видео: WEB-DLRip
Формат видео: AVI
Видео: XviD,1898 kb/s, 720x304
Аудио: Ruusian: AC3, 384 kb/s (6 ch) / English: AC3, 384 kb/s (6 ch)

MediaInfo

Format : AVI
Format/Info : Audio Video Interleave
Format profile : OpenDML
File size : 2.18 GiB
Duration : 1h 56mn
Overall bit rate : 2 684 Kbps
Writing application : VirtualDubMod 1.5.10.3 | www.virtualdub-fr.org || (build 2550/release)
Writing library : VirtualDubMod build 2550/release
Video
ID : 0
Format : MPEG-4 Visual
Format profile : Advanced [email protected]
Format settings, BVOP : 2
Format settings, QPel : No
Format settings, GMC : No warppoints
Format settings, Matrix : Default (MPEG)
Codec ID : XVID
Codec ID/Hint : XviD
Duration : 1h 56mn
Bit rate : 1 898 Kbps
Width : 720 pixels
Height : 304 pixels
Display aspect ratio : 2.35:1
Frame rate : 23.976 fps
Color space : YUV
Chroma subsampling : 4:2:0
Bit depth : 8 bits
Scan type : Progressive
Compression mode : Lossy
Bits/(Pixel*Frame) : 0.362
Stream size : 1.54 GiB (71%)
Writing library : XviD 1.2.1 (UTC 2008-12-04)
Audio #1
ID : 1
Format : AC-3
Format/Info : Audio Coding 3
Mode extension : CM (complete main)
Format settings, Endianness : Big
Codec ID : 2000
Duration : 1h 56mn
Bit rate mode : Constant
Bit rate : 384 Kbps
Channel(s) : 6 channels
Channel positions : Front: L C R, Side: L R, LFE
Sampling rate : 48.0 KHz
Bit depth : 16 bits
Compression mode : Lossy
Stream size : 320 MiB (14%)
Alignment : Split accross interleaves
Interleave, duration : 42 ms (1.00 video frame)
Interleave, preload duration : 500 ms
Audio #2
ID : 2
Format : AC-3
Format/Info : Audio Coding 3
Mode extension : CM (complete main)
Format settings, Endianness : Big
Codec ID : 2000
Duration : 1h 56mn
Bit rate mode : Constant
Bit rate : 384 Kbps
Channel(s) : 6 channels
Channel positions : Front: L C R, Side: L R, LFE
Sampling rate : 48.0 KHz
Bit depth : 16 bits
Compression mode : Lossy
Stream size : 320 MiB (14%)
Alignment : Split accross interleaves
Interleave, duration : 42 ms (1.00 video frame)
Interleave, preload duration : 500 ms

Скриншоты



Создавать темы 15-Ноя-2015 12:09

[Профиль]  [ЛС] 

Fuk3r

Стаж: 5 лет 10 месяцев

Сообщений: 72

Симпатии: 12

оо...прям оригинальный сюжет) У них сценарии по шаблону пишут?

Создавать темы 15-Ноя-2015 12:43

[Профиль]  [ЛС] 

[email protected]

Стаж: 4 года

Сообщений: 9

Симпатии: 4

958542оо...прям оригинальный сюжет) У них сценарии по шаблону пишут?
да) ay

Создавать темы 15-Ноя-2015 19:48

[Профиль]  [ЛС] 

sarvarser

Стаж: 4 года 9 месяцев

Сообщений: 21

Симпатии: 6

Че, какой фильм? Качать стоит?

Создавать темы 10-Янв-2016 12:04

[Профиль]  [ЛС] 

ulkiora5

Стаж: 4 года 5 месяцев

Сообщений: 53

Симпатии: 25

sarvarser, один раз можно посмотреть, хоть где русского выставили ни как Ивана с ушанкой

Создавать темы 11-Янв-2016 14:56

[Профиль]  [ЛС] 
Показать сообщения:    
Ответить на тему

Текущее время: 19-Ноя 17:32

Часовой пояс: UTC + 5



Вы не можете начинать темы
Вы не можете отвечать на сообщения
Вы не можете редактировать свои сообщения
Вы не можете удалять свои сообщения
Вы не можете голосовать в опросах
Вы не можете прикреплять файлы к сообщениям
Вы не можете скачивать файлы