Рио, я люблю тебя / Rio, Eu Te Amo (12 режиссеров) [2014, Бразилия, США, драма, мелодрама, комедия, DVDRip] (Dub)

Ответить на тему
 

ladysco ®

Стаж: 5 лет 3 месяца

Сообщений: 40

Симпатии: 56

Рио, я люблю тебя / Rio, Eu Te Amo
«Love happens everywhere. Some love stories only happen in Rio»Страна: Бразилия, США
Жанр: драма, мелодрама, комедия
Год выпуска: 2014
Продолжительность: 01:44:37
Перевод: Профессиональный (дублированный)
Режиссер: Висенте Аморим/Vicente Amorim, Гильермо Арриага/Guillermo Arriaga, Стефан Эллиотт/Stephan Elliott, Лим Сан Су/Im Sang Soo, Надин Лабаки/Nadine Labaki, Фернанду Мейреллиш/Fernando Meirelles, Жозе Падилья/José Padilha, Карлос Салдана/Carlos Saldanha, Паоло Соррентино/Paolo Sorrentino, Джон Туртурро/John Turturro, Андруша Ваддингтон/Andrucha Waddington, Сезар Шарлони/César Charlone
В ролях: Бэзил Хоффман, Эмили Мортимер, Родриго Санторо, Бруна Линзмейер, Надин Лабаки, Харви Кейтель, Клаудия Абреу, Фернанда Монтенегро, Эдуардо Стерблитч, Угу Карвана, Мишель Меламед, Венсан Кассель, Марсиу Гарсия, Марсело Серрадо, Райан Квантен, Бебель Жилберту, Джон Туртурро, Ванесса Паради, Лэнд Виейра, Лаура Нейва, Джейсон Айзекс, Вагнер Моура, Роберта Родригес, Тонику Перейра, Касси Абраншес, Диого де Лима, Клео Пирес, Кайо Жункейра, Кайя Антунес, Дебора Нассименту, Степан Нерцессян, Ксандро Граса, Режина Казе, Сандро Роча, Лаис Корреа, Лукас Мендез, Жессика Барбоза, Присцила Ассум, Луиза Сизар, Уилльям Ворхис, Энрике Пиреш, Марсио Розарио, Филлипе Барбоза, Дэниэл Вейбель, Рони Вийела, Морена Клара, Сержиу Като
Описание: Фильм рассказывает об одном из самых удивительных городов Южной Америки — Рио-де-Жанейро. Режиссеры из разных стран сняли десять коротких историй, которые рассказывают о любви. Каждый эпизод посвящен одному из районов города, которые обладают своими неподражаемыми колоритами.
Качество видео: DVDRip
Формат видео: AVI
Видео: XviD, 720x400, 25,000 fps, 1541 kbps, 0.214 bit/pixel
Аудио: AC3, 48 kHz, 6 ch, 448 kbps

Знаете ли вы, что...

На написание своего сегмента Джона Туртурро вдохновила песня Ванессы Паради, которая в нем же и снялась.
Несмотря на боязнь высоты, во время съемок фильма Марсело Серрадо вместе с Райаном Квантеном поднимался на гору под названием Сахарная голова. Актер прибегнул к помощи стальных тросов, которые были вырезаны уже во время пост-продакшна.
Для подготовки к своим ролям Бруна Линзмейер и Родриго Санторо брали уроки балета.
Сегмент Жозе Падильи был полностью вырезан из театральной версии фильма по причине юридических угроз со стороны религиозных учреждений, из-за использования изображения статуи Христа. Они сначала сочли эту сцену оскорбительной и неуважительной, однако позже пересмотрели свое мнение.
Стефан Эллиотт написал свой сегмент, основываясь на истории из своей жизни — он познакомился со своей супругой при таких же обстоятельствах.

MediaInfo

Format : AVI
Format/Info : Audio Video Interleave
File size : 1.46 GiB
Duration : 1h 44mn
Overall bit rate : 1 999 Kbps
Writing application : VirtualDubMod 1.5.10.3 | www.virtualdub-fr.org || (build 2550/release)
Video
ID : 0
Format : MPEG-4 Visual
Format profile : Advanced [email protected]
Format settings, BVOP : 2
Format settings, QPel : No
Format settings, GMC : No warppoints
Format settings, Matrix : Default (MPEG)
Codec ID : XVID
Codec ID/Hint : XviD
Duration : 1h 44mn
Bit rate : 1 541 Kbps
Width : 720 pixels
Height : 400 pixels
Display aspect ratio : 16:9
Frame rate : 25.000 fps
Color space : YUV
Chroma subsampling : 4:2:0
Bit depth : 8 bits
Scan type : Progressive
Compression mode : Lossy
Bits/(Pixel*Frame) : 0.214
Stream size : 1.13 GiB (77%)
Writing library : XviD 73
Audio
ID : 1
Format : AC-3
Format/Info : Audio Coding 3
Mode extension : CM (complete main)
Format settings, Endianness : Big
Codec ID : 2000
Duration : 1h 44mn
Bit rate mode : Constant
Bit rate : 448 Kbps
Channel(s) : 6 channels
Channel positions : Front: L C R, Side: L R, LFE
Sampling rate : 48.0 KHz
Bit depth : 16 bits
Compression mode : Lossy
Stream size : 335 MiB (22%)
Alignment : Split accross interleaves
Interleave, duration : 40 ms (1.00 video frame)
Interleave, preload duratio : 500 ms

Скриншоты

Создавать темы 15-Ноя-2015 20:04

[Профиль]  [ЛС] 
Показать сообщения:    
Ответить на тему

Текущее время: 24-Окт 11:04

Часовой пояс: UTC + 5



Вы не можете начинать темы
Вы не можете отвечать на сообщения
Вы не можете редактировать свои сообщения
Вы не можете удалять свои сообщения
Вы не можете голосовать в опросах
Вы не можете прикреплять файлы к сообщениям
Вы не можете скачивать файлы