Клинч (Сергей Пускепалис) [2015, Драма, WEB-DLRip]

Ответить на тему
 

Next_1 ®

Стаж: 3 года 10 месяцев

Сообщений: 32

Симпатии: 53

Клинч
Жанр: Драма
Год выпуска: 2015
Продолжительность: 01:37:30
Режиссёр: Сергей Пускепалис
В ролях: Алексей Серебряков, Анна Уколова, Максим Лагашкин, Агриппина Стеклова, Сергей Степин, Ирина Ильинская, Ася Домская, Вячеслав Евлантьев, Илья Чертов, Ирина Луковская
Описание: У школьного учителя литературы Федорова был трудный день. Две смены, потом собрание, затем нотация от директрисы, а в его маленькой квартире жена затеяла ремонт. Вдобавок ко всему по дороге домой за ним увязывается незнакомая девушка, которая выхватывает из рук учителя портфель и убегает. Федоров догоняет воровку, она плачет, жалуется на сложную жизнь и вдруг начинает обвинять его в самоубийстве своей подруги и угрожать приездом жениха-бандита. Посчитав незнакомку сумасшедшей, Федоров собирается уйти, не подозревая, что это только начало опасного знакомства.
Качество видео: .WEB-DLRip
Формат видео: AVI
Видео: Xvid 720x304 25fps 1803kbps [V: mpeg4 advanced simple profile, yuv420p, 720x304, 1803 kb/s]
Аудио: Dolby AC3 48000Hz stereo 192kbps [A: ac3, 48000 Hz, stereo, 192 kb/s]

MediaInfo

General
Complete name : E:\Торрент\Фильмы и видео\HD\Kl1nch.2015.O.WEB-DLRip.avi
Format : AVI
Format/Info : Audio Video Interleave
File size : 1.37 GiB
Duration : 1h 37mn
Overall bit rate : 2 006 Kbps
Writing application : VirtualDubMod 1.5.10.3 | www.virtualdub-fr.org || (build 2550/release)
Writing library : VirtualDubMod build 2550/release
Video
ID : 0
Format : MPEG-4 Visual
Format profile : Advanced [email protected]
Format settings, BVOP : 2
Format settings, QPel : No
Format settings, GMC : No warppoints
Format settings, Matrix : Default (MPEG)
Codec ID : XVID
Codec ID/Hint : XviD
Duration : 1h 37mn
Bit rate : 1 804 Kbps
Width : 720 pixels
Height : 304 pixels
Display aspect ratio : 2.35:1
Frame rate : 25.000 fps
Color space : YUV
Chroma subsampling : 4:2:0
Bit depth : 8 bits
Scan type : Progressive
Compression mode : Lossy
Bits/(Pixel*Frame) : 0.330
Stream size : 1.23 GiB (90%)
Writing library : XviD 1.2.1 (UTC 2008-12-04)
Audio
ID : 1
Format : AC-3
Format/Info : Audio Coding 3
Mode extension : CM (complete main)
Format settings, Endianness : Big
Codec ID : 2000
Duration : 1h 37mn
Bit rate mode : Constant
Bit rate : 192 Kbps
Channel(s) : 2 channels
Channel positions : Front: L R
Sampling rate : 48.0 KHz
Bit depth : 16 bits
Compression mode : Lossy
Stream size : 134 MiB (10%)
Alignment : Split accross interleaves
Interleave, duration : 40 ms (1.00 video frame)
Interleave, preload duration : 500 ms

Скриншот c названием фильма

Скриншоты




Создавать темы 15-Ноя-2015 21:56

[Профиль]  [ЛС] 

Андрей Варабей

Стаж: 4 года 5 месяцев

Сообщений: 67

Симпатии: 1

Может фильм и хороший,но такой мути я смотреть не стал бы даже за деньги.Если б мне попалась такая незнакомка то убил бы сразу не раздумывая.

Создавать темы 27-Ноя-2015 14:29

[Профиль]  [ЛС] 
Показать сообщения:    
Ответить на тему

Текущее время: 18-Авг 15:51

Часовой пояс: UTC + 5



Вы не можете начинать темы
Вы не можете отвечать на сообщения
Вы не можете редактировать свои сообщения
Вы не можете удалять свои сообщения
Вы не можете голосовать в опросах
Вы не можете прикреплять файлы к сообщениям
Вы не можете скачивать файлы