Я, Эрл и умирающая девушка / Me and Earl and the Dying Girl (Альфонсо Гомез-Рейон) [2015, США, Драма, комедия, HDRip] (DVO : [Sunny Films]) (Sub Rus)

Ответить на тему
 

lucky999 ®

Стаж: 1 год 11 месяцев

Сообщений: 32

Симпатии: 43

Я, Эрл и умирающая девушка / Me and Earl and the Dying Girl
Страна: США
Жанр: Драма, комедия
Год выпуска: 2015
Продолжительность: 01:35:49
Перевод: Любительское (двухголосое) Доп. инфо о переводе [Sunny Films]
Cубтитры: русские
Режиссер: Альфонсо Гомез-Рейон
В ролях: Томас Манн, АрДжей Сайлер, Оливия Кук, Ник Офферман, Конни Бриттон, Молли Шеннон, Джон Бернтал, К.С. Хьюз, Мэтт Беннетт, Масам Холден
Описание: История о подростке-режиссере, который пытается оказывать поддержку болеющей раком однокласснице.
Доп. информация: IMDB рейтинг: 7.9/10
КиноПоиск рейтинг: 8.2/10
Качество видео: HDRip
Формат видео: AVI
Видео: Xvid 720x304 23.98fps 1585kbps
Аудио: Dolby AC3 48000Hz stereo 384kbps

MediaInfo

General
Complete name : D:\torrent\Ya.Erl.1UmiRau7haYa.BaBa.2015.L2.HDRip.ELEKTRI4KA.uniongang.tv.avi
Format : AVI
Format/Info : Audio Video Interleave
File size : 1.45 GiB
Duration : 1h 45mn
Overall bit rate : 1 979 Kbps
Movie name : Ya.Erl.1UmiRau7haYa.BaBa.2015.L2.HDRip.ELEKTRI4KA.uniongang.tv
Writing application : VirtualDubMod 1.5.10.3 | www.virtualdub-fr.org || (build 2550/release)
Copyright : UNIONGANG&RUSTORRENTS
Video
ID : 0
Format : MPEG-4 Visual
Format profile : Advanced [email protected]
Format settings, BVOP : 2
Format settings, QPel : No
Format settings, GMC : No warppoints
Format settings, Matrix : Default (MPEG)
Codec ID : XVID
Codec ID/Hint : XviD
Duration : 1h 45mn
Bit rate : 1 586 Kbps
Width : 720 pixels
Height : 304 pixels
Display aspect ratio : 2.35:1
Frame rate : 23.976 fps
Color space : YUV
Chroma subsampling : 4:2:0
Bit depth : 8 bits
Scan type : Progressive
Compression mode : Lossy
Bits/(Pixel*Frame) : 0.302
Stream size : 1.17 GiB (80%)
Writing library : XviD 1.2.1 (UTC 2008-12-04)
Audio
ID : 1
Format : AC-3
Format/Info : Audio Coding 3
Mode extension : CM (complete main)
Codec ID : 2000
Duration : 1h 45mn
Bit rate mode : Constant
Bit rate : 384 Kbps
Channel(s) : 2 channels
Channel positions : Front: L R
Sampling rate : 48.0 KHz
Bit depth : 16 bits
Compression mode : Lossy
Stream size : 289 MiB (19%)
Alignment : Split accross interleaves
Interleave, duration : 42 ms (1.00 video frame)
Interleave, preload duration : 500 ms

Скриншоты



Последний раз редактировалось: lucky999 (2015-11-16 11:41), всего редактировалось 1 раз

Создавать темы 16-Ноя-2015 07:53

[Профиль]  [ЛС] 

Davron1402

Стаж: 3 года 7 месяцев

Сообщений: 136

Симпатии: 122

Фильм как, кто смотрел

Создавать темы 17-Ноя-2015 17:37

[Профиль]  [ЛС] 

tas ix

Стаж: 5 лет 6 месяцев

Сообщений: 105

Симпатии: 24

958808Фильм как, кто смотрел
Фильм отличный, стоит своих оценок

Создавать темы 02-Дек-2015 08:39

[Профиль]  [ЛС] 

Rikardo

Стаж: 3 года 8 месяцев

Сообщений: 48

Симпатии: 5

фильм на любителя, не комерческий

Создавать темы 01-Май-2016 11:00

[Профиль]  [ЛС] 
Показать сообщения:    
Ответить на тему

Текущее время: 24-Авг 10:02

Часовой пояс: UTC + 5



Вы не можете начинать темы
Вы не можете отвечать на сообщения
Вы не можете редактировать свои сообщения
Вы не можете удалять свои сообщения
Вы не можете голосовать в опросах
Вы не можете прикреплять файлы к сообщениям
Вы не можете скачивать файлы