Костяной томагавк / Bone Tomahawk (Начо Вигалондо) [2015, США, ужасы, вестерн, WEB-DLRip] MVO [Paradox]

Ответить на тему
 

ruhal ®

Стаж: 2 года 5 месяцев

Сообщений: 1181

Симпатии: 1836

- -Костяной томагавк / Bone Tomahawk- - Страна: США
Жанр: ужасы, вестерн
Год выпуска: 2015
Продолжительность: 02:10:02-Перевод: Профессиональный (многоголосый) [Paradox]
Cубтитры: нет-Режиссер: С. Крэйг Залер-В ролях: Патрик Уилсон, Курт Рассел, Шон Янг, Лили Симмонс, Мэттью Фокс, Занн МаКларнон,
Дэвид Аркетт, Кэтрин Моррис, Сид Хэйг, Ричард Дженкинс-Описание: Четверо людей приезжают на дикий запад, для того чтобы убрать кровожадных каннибалов из пещер.
Ведь население напугано. Каждую ночь эти монстры приходят и забирают самых слабых, только для того, чтобы полакомиться трупами.-Качество видео: WEB-DLRip
Формат видео: AVI
Видео: Dolby AC3 48000Hz stereo 384kbps
Аудио: Xvid 720x304 23.976fps 1829kbps
-

MediaInfo

General
Complete name : E:\Films\Kostyanoi.Tomagavk.2015.P.WEB-DLRip.Paradox_Omskbird.avi
Format : AVI
Format/Info : Audio Video Interleave
Format profile : OpenDML
File size : 2.06 GiB
Duration : 2h 12mn
Overall bit rate : 2 226 Kbps
Writing application : VirtualDubMod 1.5.10.2 (build 2540/release)
Writing library : VirtualDubMod build 2540/release
Video
ID : 0
Format : MPEG-4 Visual
Format profile : Advanced [email protected]
Format settings, BVOP : 2
Format settings, QPel : No
Format settings, GMC : No warppoints
Format settings, Matrix : Default (MPEG)
Codec ID : XVID
Codec ID/Hint : XviD
Duration : 2h 12mn
Bit rate : 1 830 Kbps
Width : 720 pixels
Height : 304 pixels
Display aspect ratio : 2.35:1
Frame rate : 23.976 fps
Color space : YUV
Chroma subsampling : 4:2:0
Bit depth : 8 bits
Scan type : Progressive
Compression mode : Lossy
Bits/(Pixel*Frame) : 0.349
Stream size : 1.69 GiB (82%)
Writing library : XviD 1.2.1 (UTC 2008-12-04)
Audio
ID : 1
Format : AC-3
Format/Info : Audio Coding 3
Mode extension : CM (complete main)
Format settings, Endianness : Big
Codec ID : 2000
Duration : 2h 12mn
Bit rate mode : Constant
Bit rate : 384 Kbps
Channel(s) : 2 channels
Channel positions : Front: L R
Sampling rate : 48.0 KHz
Compression mode : Lossy
Stream size : 363 MiB (17%)
Alignment : Split accross interleaves
Interleave, duration : 42 ms (1.00 video frame)
Interleave, preload duration : 500 ms

Скриншот c названием фильма

Скриншоты






Последний раз редактировалось: ruhal (2015-11-17 13:42), всего редактировалось 1 раз

Создавать темы 16-Ноя-2015 10:48

[Профиль]  [ЛС] 
Показать сообщения:    
Ответить на тему

Текущее время: 21-Сен 19:08

Часовой пояс: UTC + 5



Вы не можете начинать темы
Вы не можете отвечать на сообщения
Вы не можете редактировать свои сообщения
Вы не можете удалять свои сообщения
Вы не можете голосовать в опросах
Вы не можете прикреплять файлы к сообщениям
Вы не можете скачивать файлы