Хоббит: Битва пяти воинств / The Hobbit: The Battle of the Five Armies (Питер Джексон) [2014, Новая Зеландия, США, фэнтези, приключения, BDRip] [Extended Cut] (Dub) (Sub Rus)

Ответить на тему
 

ziyod ®

Стаж: 7 лет 8 месяцев

Сообщений: 367

Симпатии: 60

Хоббит: Битва пяти воинств / The Hobbit: The Battle of the Five Armies / Extended Cut
Страна: Новая Зеландия, США
Жанр: фэнтези, приключения
Год выпуска: 2014
Продолжительность: 02:44:02
Перевод: Профессиональный (дублированный) |iTunes Russia|
Cубтитры: русские
Режиссер: Питер Джексон
В ролях: Мартин Фриман, Иэн МакКеллен, Ричард Армитедж, Люк Эванс, Эванджелин Лилли, Ли Пейс, Орландо Блум, Бенедикт Камбербэтч, Кен Стотт, Эйдан Тернер
Описание: Когда отряд из тринадцати гномов нанимал хоббита Бильбо Бэгинса в качестве взломщика и четырнадцатого, «счастливого», участника похода к Одинокой горе, Бильбо полагал, что его приключения закончатся, когда он выполнит свою задачу — найдет сокровище, которое так необходимо предводителю гномов Торину. Путешествие в Эребор, захваченное драконом Смаугом королевство гномов, оказалось еще более опасным, чем предполагали гномы и даже Гэндальф — мудрый волшебник, протянувший Торину и его отряду руку помощи.
В погоню за гномами устремилась армия орков, ведомых пробудившимся в руинах древним злом, а эльфы и люди, с которыми Бильбо и его товарищам пришлось иметь дело во время путешествия и которые пострадали от последствий желания гномов вернуть свой дом, предъявили права на щедрое вознаграждение — часть сокровищ Одинокой горы. Скоро неподалеку от Одинокой горы встретятся пять армий, и лишь кровопролитная битва определит результаты смелого гномьего похода.
Качество видео: BDRip
Формат видео: MKV
Релиз: BlueBird
Видео: 1280x534 at 23.976 fps, [email protected], ~6100 kbps avg
Аудио: 48 kHz, AC3, 3/2 (L,C,R,l,r) + LFE ch, ~384 kbps avg
Субтитры: Russian (Forced, iTunes), English
Примечание: Extended версия длиннее театральной на ~20 минут. Полный дубляж.

MediaInfo

General
Unique ID : 186529192991848860032978821950787930033 (0x8C5437408A0374FAA48874730911C7B1)
Complete name : The.Hobbit.The.Battle.of.the.Five.Armies.2014.EXTENDED.D.BDRip.720p.mkv
Format : Matroska
Format version : Version 4 / Version 2
File size : 7.43 GiB
Duration : 2h 44mn
Overall bit rate : 6 486 Kbps
Encoded date : UTC 2015-11-16 07:07:30
Writing application : mkvmerge v7.6.0 ('Garden of Dreams') 32bit built on Feb 8 2015 12:51:39
Writing library : libebml v1.3.1 + libmatroska v1.4.2
DURATION : 02:42:54.930000000
NUMBER_OF_FRAMES : 1713
NUMBER_OF_BYTES : 39220
_STATISTICS_WRITING_APP : mkvmerge v7.6.0 ('Garden of Dreams') 32bit built on Feb 8 2015 12:51:39
_STATISTICS_WRITING_DATE_UT : 2015-11-16 07:07:30
_STATISTICS_TAGS : BPS DURATION NUMBER_OF_FRAMES NUMBER_OF_BYTES
Video
ID : 1
Format : AVC
Format/Info : Advanced Video Codec
Format profile : [email protected]
Format settings, CABAC : Yes
Format settings, ReFrames : 12 frames
Codec ID : V_MPEG4/ISO/AVC
Duration : 2h 44mn
Bit rate : 6 100 Kbps
Width : 1 280 pixels
Height : 534 pixels
Display aspect ratio : 2.40:1
Frame rate mode : Constant
Frame rate : 23.976 fps
Color space : YUV
Chroma subsampling : 4:2:0
Bit depth : 8 bits
Scan type : Progressive
Bits/(Pixel*Frame) : 0.372
Stream size : 6.84 GiB (92%)
Writing library : x264 core 148 r2638 7599210
Encoding settings : cabac=1 / ref=12 / deblock=1:-3:-3 / analyse=0x3:0x113 / me=umh / subme=11 / psy=1 / psy_rd=1.00:0.00 / mixed_ref=1 / me_range=32 / chroma_me=1 / trellis=2 / 8x8dct=1 / cqm=0 / deadzone=21,11 / fast_pskip=0 / chroma_qp_offset=-2 / threads=12 / lookahead_threads=2 / sliced_threads=0 / nr=0 / decimate=0 / interlaced=0 / bluray_compat=0 / constrained_intra=0 / bframes=9 / b_pyramid=2 / b_adapt=2 / b_bias=0 / direct=3 / weightb=1 / open_gop=1 / weightp=2 / keyint=240 / keyint_min=23 / scenecut=40 / intra_refresh=0 / rc=2pass / mbtree=0 / bitrate=6100 / ratetol=1.0 / qcomp=0.60 / qpmin=0 / qpmax=69 / qpstep=4 / cplxblur=20.0 / qblur=0.5 / ip_ratio=1.40 / pb_ratio=1.30 / aq=3:0.80
Language : English
Default : Yes
Forced : No
DURATION : 02:44:02.551000000
NUMBER_OF_FRAMES : 235985
NUMBER_OF_BYTES : 7504664976
_STATISTICS_WRITING_APP : mkvmerge v7.6.0 ('Garden of Dreams') 32bit built on Feb 8 2015 12:51:39
_STATISTICS_WRITING_DATE_UT : 2015-11-16 07:07:30
_STATISTICS_TAGS : BPS DURATION NUMBER_OF_FRAMES NUMBER_OF_BYTES
Audio
ID : 2
Format : AC-3
Format/Info : Audio Coding 3
Mode extension : CM (complete main)
Format settings, Endianness : Big
Codec ID : A_AC3
Duration : 2h 44mn
Bit rate mode : Constant
Bit rate : 384 Kbps
Channel(s) : 6 channels
Channel positions : Front: L C R, Side: L R, LFE
Sampling rate : 48.0 KHz
Compression mode : Lossy
Stream size : 451 MiB (6%)
Title : iTunes
Language : Russian
Default : Yes
Forced : No
Text #1
ID : 3
Format : UTF-8
Codec ID : S_TEXT/UTF8
Codec ID/Info : UTF-8 Plain Text
Title : Forced
Language : Russian
Default : Yes
Forced : No
Text #2
ID : 4
Format : UTF-8
Codec ID : S_TEXT/UTF8
Codec ID/Info : UTF-8 Plain Text
Language : English
Default : No
Forced : No
Text #3
ID : 5
Format : UTF-8
Codec ID : S_TEXT/UTF8
Codec ID/Info : UTF-8 Plain Text
Language : English
Default : No
Forced : No
Menu
00:00:00.000 : en:Chapter 1
00:05:12.395 : en:Chapter 2
00:12:47.057 : en:Chapter 3
00:13:19.298 : en:Chapter 4
00:18:57.427 : en:Chapter 5
00:23:42.170 : en:Chapter 6
00:24:56.161 : en:Chapter 7
00:26:04.563 : en:Chapter 8
00:27:33.026 : en:Chapter 9
00:35:45.685 : en:Chapter 10
00:36:41.282 : en:Chapter 11
00:40:41.897 : en:Chapter 12
00:42:01.143 : en:Chapter 13
00:43:11.755 : en:Chapter 14
00:46:16.148 : en:Chapter 15
00:51:27.667 : en:Chapter 16
00:54:57.961 : en:Chapter 17
00:56:14.829 : en:Chapter 18
00:58:31.299 : en:Chapter 19
01:00:26.956 : en:Chapter 20
01:02:43.593 : en:Chapter 21
01:06:10.174 : en:Chapter 22
01:12:23.297 : en:Chapter 23
01:17:22.554 : en:Chapter 24
01:20:36.331 : en:Chapter 25
01:24:57.217 : en:Chapter 26
01:28:41.774 : en:Chapter 27
01:30:52.280 : en:Chapter 28
01:33:02.159 : en:Chapter 29
01:35:12.832 : en:Chapter 30
01:38:32.489 : en:Chapter 31
01:39:42.893 : en:Chapter 32
01:41:00.596 : en:Chapter 33
01:45:03.505 : en:Chapter 34
01:47:13.635 : en:Chapter 35
01:49:05.288 : en:Chapter 36
01:50:03.013 : en:Chapter 37
01:52:59.606 : en:Chapter 38
01:53:51.282 : en:Chapter 39
01:57:15.236 : en:Chapter 40
02:05:38.572 : en:Chapter 41
02:12:07.044 : en:Chapter 42
02:15:26.243 : en:Chapter 43
02:18:32.512 : en:Chapter 44
02:20:07.440 : en:Chapter 45
02:22:27.205 : en:Chapter 46
02:26:11.596 : en:Chapter 47
02:30:54.462 : en:Chapter 48

Скриншоты



Создавать темы 16-Ноя-2015 14:09

[Профиль]  [ЛС] 

Faxa

Стаж: 7 лет 6 месяцев

Сообщений: 115

Симпатии: 4

ziyod, скиньте свой айпи чтобы добавить в пиры. Начал качать другую раздачу, но тут у видео битрейт намного выше.

Создавать темы 16-Ноя-2015 15:13

[Профиль]  [ЛС] 

ziyod ®

Стаж: 7 лет 8 месяцев

Сообщений: 367

Симпатии: 60

извиняюсь, не могу с ip.

Создавать темы 16-Ноя-2015 17:50

[Профиль]  [ЛС] 

Faxa

Стаж: 7 лет 6 месяцев

Сообщений: 115

Симпатии: 4

958698извиняюсь, не могу с ip.
может передадите файл своему другу чтобы он помог с раздачей... А то так будем очень долго качать.

Создавать темы 17-Ноя-2015 01:44

[Профиль]  [ЛС] 

ziyod ®

Стаж: 7 лет 8 месяцев

Сообщений: 367

Симпатии: 60

Кто живёт в Ташкенте, в Яккасарайском районе или может приехать, могу скинуть, в личку.

Создавать темы 17-Ноя-2015 09:07

[Профиль]  [ЛС] 

an4ik

Стаж: 7 лет 6 месяцев

Сообщений: 12

Симпатии: 2

где раздаче??? встаньте на раздачу

Создавать темы 28-Ноя-2015 11:56

[Профиль]  [ЛС] 
Показать сообщения:    
Ответить на тему

Текущее время: 18-Ноя 22:43

Часовой пояс: UTC + 5



Вы не можете начинать темы
Вы не можете отвечать на сообщения
Вы не можете редактировать свои сообщения
Вы не можете удалять свои сообщения
Вы не можете голосовать в опросах
Вы не можете прикреплять файлы к сообщениям
Вы не можете скачивать файлы