"Спектакль..." Сольный концерт Полины Гагариной (Эфир от 12.07.2015) / "Performance..." (нет/нет) [2015, Россия, Pop, HDTVRip] (Original Rus)

Ответить на тему
 

JurPrint ®

Стаж: 5 лет

Сообщений: 28

Симпатии: 9

"Спектакль..." Сольный концерт Полины Гагариной (Эфир от 12.07.2015) / "Performance..."
Страна: Россия
Жанр: Pop
Год выпуска: 2015
Продолжительность: 01:19:41
Перевод: Не требуется
Cубтитры: нет
Оригинальная аудиодорожка: русский
Режиссер: нет/нет
В ролях: Полина Гагарина
Описание: Первый канала представляет телевизионную версию сольного концерта Полины Гагариной "Спектакль…", который прошел в столичном Crocus City Hall с небывалым успехом. Напомним, что вскоре после него Полина выступила в Вене на конкурсе "Евровидение 2015" и едва не выиграла его, лишь немного уступив шведскому исполнителю. Концерт "Спектакль" полностью оправдывает свое название, представляя собой в такой же степени музыкальное, в какой и театрализованное действо со всеми атрибутами, свойственными сделанной на высочайшем уровне театральной постановке. Исполнительница исполнит все свои самые яркие хиты, включая "Спектакль окончен", "Нет", "Навек" и др.
Доп. информация:
Треклист:
1. Колыбельная;
2. Любовь под солнцем;
3. Запретная любовь;
4. Осколки;
5. Помню;
6. Утро;
7. Я твоя;
8. Полюшка;
9. Где-то живет любовь;
10. Кому? Зачем?;
11. Я тебя не прощу никогда;
12. Нет;
13. Навек;
14. WC;
15. Шагай;
16. Спектакль окончен.
Качество видео: HDTVRip
Формат видео: MPEG-TS
Видео: H.264 AVC, 1920x1080 (16:9) 25.000 fps ~9 228 Kbps, 0.178 bit/pixel
Аудио: MP2 MPEG Audio 48000Hz stereo 2 channels 224 Кбит/сек

MediaInfo

Общее
Идентификатор : 1 (0x1)
Полное имя : D:\Concert\Спектакль... Сольный концерт Полины Гагариной (2015, HDTV 1080i, Эфир от 12.07.2015) (by Nokia5150).ts
Формат : MPEG-TS
Размер файла : 5,54 Гбайт
Продолжительность : 1 ч. 19 м.
Режим общего битрейта : Переменный
Общий поток : 9946 Кбит/сек
Видео
Идентификатор : 2646 (0xA56)
Идентификатор меню : 1 (0x1)
Формат : AVC
Формат/Информация : Advanced Video Codec
Профиль формата : [email protected]
Параметр CABAC формата : Да
Параметр ReFrames формата : 3 кадра
Идентификатор кодека : 27
Продолжительность : 1 ч. 19 м.
Битрейт : 9228 Кбит/сек
Ширина : 1920 пикселей
Высота : 1080 пикселей
Соотношение сторон : 16:9
Частота кадров : 25,000 кадров/сек
Стандарт вещания : Component
Цветовое пространство : YUV
Субдискретизация насыщенности : 4:2:0
Битовая глубина : 8 бит
Тип развёртки : Чересстрочная
Порядок развёртки : Верхнее поле первое
Бит/(Пиксели*Кадры) : 0.178
Размер потока : 5,14 Гбайт (93%)
Цветовой диапазон : Limited
Основные цвета : BT.709
Характеристики трансфера : BT.709
Коэффициенты матрицы : BT.709
Аудио
Идентификатор : 3646 (0xE3E)
Идентификатор меню : 1 (0x1)
Формат : MPEG Audio
Версия формата : Version 1
Профиль формата : Layer 2
Идентификатор кодека : 3
Продолжительность : 1 ч. 19 м.
Вид битрейта : Постоянный
Битрейт : 224 Кбит/сек
Каналы : 2 канала
Частота : 48,0 КГц
Метод сжатия : С потерями
Размер потока : 128 Мбайт (2%)
Язык : Russian

Скриншоты

Создавать темы 16-Ноя-2015 21:18

[Профиль]  [ЛС] 
Показать сообщения:    
Ответить на тему

Текущее время: 22-Окт 13:20

Часовой пояс: UTC + 5



Вы не можете начинать темы
Вы не можете отвечать на сообщения
Вы не можете редактировать свои сообщения
Вы не можете удалять свои сообщения
Вы не можете голосовать в опросах
Вы не можете прикреплять файлы к сообщениям
Вы не можете скачивать файлы