Костяной томагавк / Bone Tomahawk (С. Крэйг Залер) [2015, США, ужасы, вестерн, WEB-DLRip] (MVO)

Ответить на тему
 

X-MART ®

Стаж: 2 года 2 месяца

Сообщений: 21

Симпатии: 14

Костяной томагавк / Bone Tomahawk Страна: США
Жанр: ужасы, вестерн
Год выпуска: 2015
Продолжительность: 02:12:03
Перевод: Профессиональный (многоголосый закадровый)
Cубтитры: нет
Режиссер: С. Крэйг Залер
В ролях: Патрик Уилсон, Курт Рассел, Лили Симмонс, Шон Янг, Занн МаКларнон, Мэттью Фокс, Дэвид Аркетт, Сид Хэйг, Ричард Дженкинс, Кэтрин Моррис и другие.
Описание: Четверо людей приезжают на дикий запад, для того чтобы убрать кровожадных каннибалов из пещер. Ведь население напугано. Каждую ночь эти монстры приходят и забирают самых слабых, только для того, чтобы полакомиться трупами.
Качество видео: WEB-DLRip
Формат видео: AVI
Видео: 1089 kbps, 720×304, 23.976 fps
Аудио: 384 kbps, 2 channels, 48.0 kHz

MediaInfo

General
Complete name : D:\...\Костяной томагавк.avi
Format : AVI
Format/Info : Audio Video Interleave
File size : 1.37 GiB
Duration : 2h 12mn
Overall bit rate : 1 482 Kbps
Writing application : VirtualDubMod 1.5.10.2 (build 2540/release)
Writing library : VirtualDubMod build 2540/release
Video
ID : 0
Format : MPEG-4 Visual
Format profile : Advanced [email protected]
Format settings, BVOP : 2
Format settings, QPel : No
Format settings, GMC : No warppoints
Format settings, Matrix : Default (MPEG)
Codec ID : XVID
Codec ID/Hint : XviD
Duration : 2h 12mn
Bit rate : 1 089 Kbps
Width : 720 pixels
Height : 304 pixels
Display aspect ratio : 2.35:1
Frame rate : 23.976 fps
Color space : YUV
Chroma subsampling : 4:2:0
Bit depth : 8 bits
Scan type : Progressive
Compression mode : Lossy
Bits/(Pixel*Frame) : 0.207
Stream size : 1.00 GiB (73%)
Writing library : XviD 1.2.1 (UTC 2008-12-04)
Audio
ID : 1
Format : AC-3
Format/Info : Audio Coding 3
Mode extension : CM (complete main)
Format settings, Endianness : Big
Codec ID : 2000
Duration : 2h 12mn
Bit rate mode : Constant
Bit rate : 384 Kbps
Channel(s) : 2 channels
Channel positions : Front: L R
Sampling rate : 48.0 KHz
Bit depth : 16 bits
Compression mode : Lossy
Stream size : 363 MiB (26%)
Alignment : Split accross interleaves
Interleave, duration : 42 ms (1.00 video frame)
Interleave, preload duration : 500 ms

Скриншот c названием фильма

Скриншоты



Последний раз редактировалось: X-MART (2015-11-17 13:43), всего редактировалось 4 раз(а)

Создавать темы 17-Ноя-2015 09:45

[Профиль]  [ЛС] 

Grock

Стаж: 6 лет 10 месяцев

Сообщений: 637

Симпатии: 113

X-MART, Подредактировал немного оформление, если вы не против)

Создавать темы 17-Ноя-2015 13:38

[Профиль]  [ЛС] 

X-MART ®

Стаж: 2 года 2 месяца

Сообщений: 21

Симпатии: 14

958789X-MART, Подредактировал немного оформление, если вы не против)
Очень даже не против, ay ay ay мне так самому больше нравится aa просто торопился с утра не стал изголяться

Создавать темы 17-Ноя-2015 17:18

[Профиль]  [ЛС] 

outoforder

Стаж: 5 лет 1 месяц

Сообщений: 812

Симпатии: 172

Каждую ночь эти монстры приходят и забирают самых слабых, только для того, чтобы полакомиться трупами.
Так они слабых забирают или трупы? bw

Создавать темы 18-Ноя-2015 00:00

[Профиль]  [ЛС] 

X-MART ®

Стаж: 2 года 2 месяца

Сообщений: 21

Симпатии: 14

958860
Каждую ночь эти монстры приходят и забирают самых слабых, только для того, чтобы полакомиться трупами.
Так они слабых забирают или трупы? bw
"сначала слабеньким и немощным секир башка делать а уже потом подгнивающий трупик полакомиться " наверное так af

Создавать темы 18-Ноя-2015 23:52

[Профиль]  [ЛС] 
Показать сообщения:    
Ответить на тему

Текущее время: 16-Дек 18:07

Часовой пояс: UTC + 5



Вы не можете начинать темы
Вы не можете отвечать на сообщения
Вы не можете редактировать свои сообщения
Вы не можете удалять свои сообщения
Вы не можете голосовать в опросах
Вы не можете прикреплять файлы к сообщениям
Вы не можете скачивать файлы