Человек-муравей / Ant-Man ( Пейтон Рид) [2015 г., фантастика, боевик, комедия, приключения, WEB-DLRip] [iTunes]

Ответить на тему
 

ElATE ®

Стаж: 2 года 2 месяца

Сообщений: 19

Симпатии: 39

Человек-муравей / Ant-Man (2015) WEB-DLRip«Рожденный ползать взлетит до небес»- Производство: США / Marvel Studios Inc.
Год: 2015
Жанр: Фантастика, Боевик, Комедия
Продолжительность: 01:57:21
Перевод: Дублированный (iTunes Russia)-Режиссер: Пейтон Рид
Продюсер: Кевин Файги, Виктория Алонсо, Луис Д’Эспозито
Актеры: Пол Радд, Майкл Дуглас, Эванджелин Лилли, Кори Столл, Майкл Пенья, Бобби Каннавале, Ти-Ай, Давид Дастмалчян, Эбби Райдер Фортсон, Джуди Грир-Описание:
Вооружившись удивительной способностью уменьшаться в размере, но обладать при этом большой силой, мошенник Скотт Лэнг должен стать героем и помочь своему наставнику, доктору Хэнку Пиму, сохранить в тайне существование костюма Человека-муравья от угроз нового поколения.- -Дата мировой премьеры: 29 июня 2015
Дата премьеры в России: 16 июля 2015, «WDSSPR»
Дата выхода DVD/Blu-ray релиза: 17 ноября 2015, «Уолт Дисней Компани СНГ»-Качество видео: WEB-DLRip
Формат: AVI
Видео кодек: XviD
Аудио кодек: AC3
Видео: XviD, 1312 kb/s, 720x384, 23,976fps
Аудио: AC3, 384 kb/s (6 ch),48,0 Khz (iTunes Russia)

MediaInfo

Общее
Полное имя : D:\[movies]\4eLoBek.MyPaBey.2015.D.WEB-DLRip.1.46GB.avi
Формат : AVI
Формат/Информация : Audio Video Interleave
Размер файла : 1,46 Гбайт
Продолжительность : 1 ч. 57 м.
Общий поток : 1775 Кбит/сек
Программа кодирования : VirtualDubMod 1.5.10.2 (build 2540/release)
Библиотека кодирования : VirtualDubMod build 2540/release
Видео
Идентификатор : 0
Формат : MPEG-4 Visual
Профиль формата : Advanced [email protected]
Параметр BVOP формата : 2
Параметр QPel формата : Нет
Параметр GMC формата : Без точки перехода
Параметр матрицы формата : Default (MPEG)
Идентификатор кодека : XVID
Идентификатор кодека/Подсказка : XviD
Продолжительность : 1 ч. 57 м.
Битрейт : 1312 Кбит/сек
Ширина : 720 пикселей
Высота : 384 пикселя
Соотношение сторон : 1,85:1
Частота кадров : 23,976 кадра/сек
Цветовое пространство : YUV
Субдискретизация насыщенности : 4:2:0
Битовая глубина : 8 бит
Тип развёртки : Прогрессивная
Метод сжатия : С потерями
Бит/(Пиксели*Кадры) : 0.198
Размер потока : 1,08 Гбайт (74%)
Библиотека кодирования : XviD 1.2.1 (UTC 2008-12-04)
Аудио
Идентификатор : 1
Формат : AC-3
Формат/Информация : Audio Coding 3
Расширение режима : CM (complete main)
Параметр Endianness формата : Big
Идентификатор кодека : 2000
Продолжительность : 1 ч. 57 м.
Вид битрейта : Постоянный
Битрейт : 384 Кбит/сек
Каналы : 6 каналов
Расположение каналов : Front: L C R, Side: L R, LFE
Частота : 48,0 КГц
Битовая глубина : 16 бит
Метод сжатия : С потерями
Размер потока : 322 Мбайт (22%)
Выравнивание : Разделение по промежуткам

Скриншоты





Последний раз редактировалось: ElATE (2015-11-18 00:58), всего редактировалось 2 раз(а)

Создавать темы 18-Ноя-2015 00:44

[Профиль]  [ЛС] 

ElATE ®

Стаж: 2 года 2 месяца

Сообщений: 19

Симпатии: 39

Человек-муравей / Ant-Man (2015) WEB-DL [H.264/1080p-LQ]

Создавать темы 18-Ноя-2015 00:47

[Профиль]  [ЛС] 

ElATE ®

Стаж: 2 года 2 месяца

Сообщений: 19

Симпатии: 39

Пока модераторы проверят, можете скачать по этой ссылке: https://tas-ix.net/dl.php?id=88541

Создавать темы 18-Ноя-2015 19:37

[Профиль]  [ЛС] 
Показать сообщения:    
Ответить на тему

Текущее время: 21-Сен 22:31

Часовой пояс: UTC + 5



Вы не можете начинать темы
Вы не можете отвечать на сообщения
Вы не можете редактировать свои сообщения
Вы не можете удалять свои сообщения
Вы не можете голосовать в опросах
Вы не можете прикреплять файлы к сообщениям
Вы не можете скачивать файлы