Человек-муравей / Ant-Man ( Пейтон Рид) [2015 г., фантастика, боевик, комедия, приключения, WEB-DL [H.264/1080p-LQ]] [iTunes]

Ответить на тему
 

ElATE ®

Стаж: 2 года 1 месяц

Сообщений: 19

Симпатии: 39

Человек-муравей / Ant-Man (2015) WEB-DL [H.264/1080p-LQ]«Рожденный ползать взлетит до небес»- Производство: США / Marvel Studios Inc.
Год: 2015
Жанр: Фантастика, Боевик, Комедия
Продолжительность: 01:57:21
Перевод: Дублированный [iTunes]-Режиссер: Пейтон Рид
Продюсер: Кевин Файги, Виктория Алонсо, Луис Д’Эспозито
Актеры: Пол Радд, Майкл Дуглас, Эванджелин Лилли, Кори Столл, Майкл Пенья, Бобби Каннавале, Ти-Ай, Давид Дастмалчян, Эбби Райдер Фортсон, Джуди Грир-Описание:
Вооружившись удивительной способностью уменьшаться в размере, но обладать при этом большой силой, мошенник Скотт Лэнг должен стать героем и помочь своему наставнику, доктору Хэнку Пиму, сохранить в тайне существование костюма Человека-муравья от угроз нового поколения.- -Дата мировой премьеры: 29 июня 2015
Дата премьеры в России: 16 июля 2015, «WDSSPR»
Дата выхода DVD/Blu-ray релиза: 17 ноября 2015, «Уолт Дисней Компани СНГ»-Качество видео: WEB-DL [H.264/1080p-LQ]
Контейнер: MKV
Видео: AVC/H.264, 1916x1032, ~4972 Кбит/сек
Аудио #1: Русский: 48,0 КГц, AC3, 6 ch, 384 kbps
Аудио #2: Английский: 48,0 КГц, AC3, 6 ch, 384 kbps
Вид субтитров: Вшитые отключаемые
Язык субтитров: Русский, Английский

MediaInfo

Уникальный идентификатор                 : 210257262803487109394002622472160576725 (0x9E2E136AA19763579DFBF3DFCA9884D5)
Полное имя                               : :\\ANTMN_(2015)_WEB-DL_1080P.mkv
Формат                                   : Matroska
Версия формата                           : Version 4 / Version 2
Размер файла                             : 4,80 Гбайт
Продолжительность                        : 1 ч. 57 м.
Общий поток                              : 5857 Кбит/сек
Дата кодирования                         : UTC 2015-11-16 21:36:53
Программа кодирования                    : mkvmerge v8.5.0 ('Vanishing Act') 32bit
Библиотека кодирования                   : libebml v1.3.1 + libmatroska v1.4.2
DURATION                                 : 01:56:32.086000000
NUMBER_OF_FRAMES                         : 1865
NUMBER_OF_BYTES                          : 53483
_STATISTICS_WRITING_APP                  : mkvmerge v8.5.0 ('Vanishing Act') 32bit
_STATISTICS_WRITING_DATE_UTC             : 2015-11-16 21:36:53
_STATISTICS_TAGS                         : BPS DURATION NUMBER_OF_FRAMES NUMBER_OF_BYTES
Видео
Идентификатор                            : 1
Формат                                   : AVC
Формат/Информация                        : Advanced Video Codec
Профиль формата                          : [email protected]
Параметр CABAC формата                   : Да
Параметр ReFrames формата                : 4 кадра
Идентификатор кодека                     : V_MPEG4/ISO/AVC
Продолжительность                        : 1 ч. 57 м.
Битрейт                                  : 4972 Кбит/сек
Ширина                                   : 1916 пикселей
Высота                                   : 1032 пикселя
Соотношение сторон                       : 1,85:1
Режим частоты кадров                     : Постоянный
Частота кадров                           : 23,976 кадра/сек
Цветовое пространство                    : YUV
Субдискретизация насыщенности            : 4:2:0
Битовая глубина                          : 8 бит
Тип развёртки                            : Прогрессивная
Бит/(Пиксели*Кадры)                      : 0.105
Размер потока                            : 4,08 Гбайт (85%)
Язык                                     : English
Default                                  : Да
Forced                                   : Нет
Цветовой диапазон                        : Limited
Основные цвета                           : BT.709
Характеристики трансфера                 : BT.709
Коэффициенты матрицы                     : BT.709
Аудио #1
Идентификатор                            : 2
Формат                                   : AC-3
Формат/Информация                        : Audio Coding 3
Расширение режима                        : CM (complete main)
Параметр Endianness формата              : Big
Идентификатор кодека                     : A_AC3
Продолжительность                        : 1 ч. 57 м.
Вид битрейта                             : Постоянный
Битрейт                                  : 384 Кбит/сек
Каналы                                   : 6 каналов
Расположение каналов                     : Front: L C R, Side: L R, LFE
Частота                                  : 48,0 КГц
Метод сжатия                             : С потерями
Размер потока                            : 322 Мбайт (7%)
Язык                                     : Russian
Default                                  : Да
Forced                                   : Нет
Аудио #2
Идентификатор                            : 3
Формат                                   : AC-3
Формат/Информация                        : Audio Coding 3
Расширение режима                        : CM (complete main)
Параметр Endianness формата              : Big
Идентификатор кодека                     : A_AC3
Продолжительность                        : 1 ч. 57 м.
Вид битрейта                             : Постоянный
Битрейт                                  : 384 Кбит/сек
Каналы                                   : 6 каналов
Расположение каналов                     : Front: L C R, Side: L R, LFE
Частота                                  : 48,0 КГц
Метод сжатия                             : С потерями
Размер потока                            : 322 Мбайт (7%)
Язык                                     : English
Default                                  : Нет
Forced                                   : Нет
Текст #1
Идентификатор                            : 4
Формат                                   : UTF-8
Идентификатор кодека                     : S_TEXT/UTF8
Идентификатор кодека/Информация          : UTF-8 Plain Text
Заголовок                                : forced
Язык                                     : Russian
Default                                  : Да
Forced                                   : Да
Текст #2
Идентификатор                            : 5
Формат                                   : UTF-8
Идентификатор кодека                     : S_TEXT/UTF8
Идентификатор кодека/Информация          : UTF-8 Plain Text
Заголовок                                : Full
Язык                                     : Russian
Default                                  : Нет
Forced                                   : Нет
Текст #3
Идентификатор                            : 6
Формат                                   : UTF-8
Идентификатор кодека                     : S_TEXT/UTF8
Идентификатор кодека/Информация          : UTF-8 Plain Text
Язык                                     : English
Default                                  : Нет
Forced                                   : Нет
Меню
00:00:00.000                             : en:1
00:02:08.000                             : en:2
00:08:40.000                             : en:3
00:15:24.000                             : en:4
00:19:59.000                             : en:5
00:27:50.000                             : en:6
00:33:07.000                             : en:7
00:38:56.000                             : en:8
00:44:36.000                             : en:9
00:49:22.000                             : en:10
00:57:44.000                             : en:11
01:00:48.000                             : en:12
01:06:31.000                             : en:13
01:23:21.000                             : en:14
01:34:20.000                             : en:15
01:47:33.000                             : en:16

Скриншоты




Создавать темы 18-Ноя-2015 00:46

[Профиль]  [ЛС] 
Показать сообщения:    
Ответить на тему

Текущее время: 18-Авг 00:29

Часовой пояс: UTC + 5



Вы не можете начинать темы
Вы не можете отвечать на сообщения
Вы не можете редактировать свои сообщения
Вы не можете удалять свои сообщения
Вы не можете голосовать в опросах
Вы не можете прикреплять файлы к сообщениям
Вы не можете скачивать файлы