Последние пантеры / The Last Panthers / Сезон: 1 / Серии: 6 из 6 (Йохан Ренк) [2015, боевик, драма, HDRip] MVO (BaibaKo) + Original

Ответить на тему
 

Mamutov ®

Стаж: 4 года 11 месяцев

Сообщений: 255

Симпатии: 144

---Последние пантеры / The Last Panthers
---Год выпуска: 2015
Страна: Великобритания, Франция
Жанр: драма, криминал
Продолжительность: ~ 00:50:00-Перевод: Профессиональный (многоголосый закадровый) | BaibaKo-Режиссёр: Йохан Ренк-В ролях: Горан Богдан, Саманта Мортон, Джон Хёрт, Тахар Рахим, Игор Бенчина, Янн Эбонж, Кобна Холдбрук-Смит, Мусса Мааскри, Адам Нина, Фарида Рахуадж-Описание: Сюжет повествует о реально существующей знаменитой интернациональной банде воров «Розовые пантеры», которая специализируется на краже драгоценностей. Эти ребята на мелочи не размениваются — обычно ценность их трофеев исчисляется десятками миллионов евро, поэтому каждое их новое ограбление обычно поднимает большой шум в мировой прессе. Тем не менее, команда международных экспертов попытается схватить неуловимых воров хотя бы в телевизионной реальности.-Качество: HDRip
Формат: AVI
Видео кодек: XviD
Аудио кодек: MP3
Видео: XviD, ~ 1500 kbps, 720x304 (16:9), 25 fps
Аудио: : MP3, 48,0 КГц, 2 ch, 192 kbps - Rus
Аудио 2: : MP3, 48,0 КГц, 2 ch, 192 kbps - Eng
---

MediaInfo

Общее
Полное имя                               : D:\загрузки\The.Last.Panthers.s01e01.BDRip.XviD.Rus-Eng.BaibaKo.avi
Формат                                   : AVI
Формат/Информация                        : Audio Video Interleave
Размер файла                             : 677 Мбайт
Продолжительность                        : 50 м.
Общий поток                              : 1888 Кбит/сек
Программа кодирования                    : VirtualDubMod 1.5.10.3 | www.virtualdub-fr.org || (build 2550/release)
Библиотека кодирования                   : VirtualDubMod build 2550/release
Видео
Идентификатор                            : 0
Формат                                   : MPEG-4 Visual
Профиль формата                          : Advanced [email protected]
Параметр BVOP формата                    : 2
Параметр QPel формата                    : Нет
Параметр GMC формата                     : Без точки перехода
Параметр матрицы формата                 : Default (H.263)
Идентификатор кодека                     : XVID
Идентификатор кодека/Подсказка           : XviD
Продолжительность                        : 50 м.
Битрейт                                  : 1489 Кбит/сек
Ширина                                   : 720 пикселей
Высота                                   : 304 пикселя
Соотношение сторон                       : 2,35:1
Частота кадров                           : 25,000 кадров/сек
Цветовое пространство                    : YUV
Субдискретизация насыщенности            : 4:2:0
Битовая глубина                          : 8 бит
Тип развёртки                            : Прогрессивная
Метод сжатия                             : С потерями
Бит/(Пиксели*Кадры)                      : 0.272
Размер потока                            : 534 Мбайт (79%)
Библиотека кодирования                   : XviD 67
Аудио #1
Идентификатор                            : 1
Формат                                   : MPEG Audio
Версия формата                           : Version 1
Профиль формата                          : Layer 3
Режим                                    : Joint stereo
Расширение режима                        : MS Stereo
Идентификатор кодека                     : 55
Идентификатор кодека/Подсказка           : MP3
Продолжительность                        : 50 м.
Вид битрейта                             : Постоянный
Битрейт                                  : 192 Кбит/сек
Каналы                                   : 2 канала
Частота                                  : 48,0 КГц
Метод сжатия                             : С потерями
Размер потока                            : 68,8 Мбайт (10%)
Выравнивание                             : Соединение по промежуткам
Продолжительность промежутка             : 40  мс. (1,00 видеокадр)
Время предзагрузки промежутка            : 504  мс.
Аудио #2
Идентификатор                            : 2
Формат                                   : MPEG Audio
Версия формата                           : Version 1
Профиль формата                          : Layer 3
Режим                                    : Joint stereo
Расширение режима                        : MS Stereo
Идентификатор кодека                     : 55
Идентификатор кодека/Подсказка           : MP3
Продолжительность                        : 50 м.
Вид битрейта                             : Постоянный
Битрейт                                  : 192 Кбит/сек
Каналы                                   : 2 канала
Частота                                  : 48,0 КГц
Метод сжатия                             : С потерями
Размер потока                            : 68,8 Мбайт (10%)
Выравнивание                             : Соединение по промежуткам
Продолжительность промежутка             : 40  мс. (1,00 видеокадр)
Время предзагрузки промежутка            : 504  мс.
Библиотека кодирования                   : LAME3.98

Скриншоты





Последний раз редактировалось: Mamutov (2016-03-25 08:24), всего редактировалось 5 раз(а)

Создавать темы 18-Ноя-2015 09:55

[Профиль]  [ЛС] 

Mamutov ®

Стаж: 4 года 11 месяцев

Сообщений: 255

Симпатии: 144

2 серия

Создавать темы 02-Янв-2016 20:22

[Профиль]  [ЛС] 

Mamutov ®

Стаж: 4 года 11 месяцев

Сообщений: 255

Симпатии: 144

3 серия

Создавать темы 11-Янв-2016 00:16

[Профиль]  [ЛС] 

Mamutov ®

Стаж: 4 года 11 месяцев

Сообщений: 255

Симпатии: 144

4-5 серии

Создавать темы 25-Янв-2016 23:31

[Профиль]  [ЛС] 

Mamutov ®

Стаж: 4 года 11 месяцев

Сообщений: 255

Симпатии: 144

6 серия

Создавать темы 25-Мар-2016 08:24

[Профиль]  [ЛС] 
Показать сообщения:    
Ответить на тему

Текущее время: 15-Дек 07:47

Часовой пояс: UTC + 5



Вы не можете начинать темы
Вы не можете отвечать на сообщения
Вы не можете редактировать свои сообщения
Вы не можете удалять свои сообщения
Вы не можете голосовать в опросах
Вы не можете прикреплять файлы к сообщениям
Вы не можете скачивать файлы