Хороший день | Прекрасный день / Joheun Nal / A Good Day | One Sunny Day [10/10] [2014, романтика, TVRip] [RAW] [720p]

Ответить на тему
 

Jasur S ®

Стаж: 4 года 7 месяцев

Сообщений: 110

Симпатии: 111

-Хороший день | Прекрасный день / Joheun Nal / A Good Day | One Sunny Day
-
Страна: Южная Корея
Жанр: романтика
Год выпуска: 2014
Продолжительность: 10/10 ~ по 14 минут
Cубтитры: русские
Оригинальная аудиодорожка: корейский
-
Режиссер: Kwon Hyuk Chan
В ролях:
So Ji Sub as Ji Ho
Kim Ji Won as the girl
Im Joo Eun as Ji Ho's ex-girlfriend
Lee Jong Hyuk as Young Ho
Lee Jong Hyun as couple guy
Ha Jae Sook
Kim Mi Kyung
Описание: Одна история, случившаяся с двумя людьми на острове Чеджу.
У него настал сложный период в жизни, любимая девушка выходит замуж. Он опустошен, и, чтобы найти место для проведения фестиваля, а также немного развеяться, отправляется на остров.
Она очень интересная девушка, которая также приезжает на остров по работе. Но Чеджу встречает ее не очень тепло - у нее крадут телефон и кое-какие вещи.
Случайно или по воле судьбы наши герои встречают друг друга. А вот что выйдет из этого, узнаете сами.
-
Доп. информация: Перевод фансаб-группы Азалии
-
Качество видео: TVRip
Формат видео: MP4
Видео: MPEG4 Video (H264) 1280x720 24fps 1203kbps [V: h264 high L3.1, yuv420p, 1280x720, 1203 kb/s]
Аудио: AAC 44100Hz stereo 191kbps [A: IsoMedia File Produced by Google, 5-11-2011 (aac lc, 44100 Hz, stereo, 191 kb/s)]

MediaInfo

General
Complete name : E:\Dramas\One Sunny Day - A Good Day\One Sunny Day - A Good Day E01.mp4
Format : MPEG-4
Format profile : Base Media / Version 2
Codec ID : mp42
File size : 124 MiB
Duration : 12mn 25s
Overall bit rate mode : Variable
Overall bit rate : 1 398 Kbps
Encoded date : UTC 2015-01-04 19:32:02
Tagged date : UTC 2015-01-04 19:32:02
gsst : 0
gstd : 745963
gssd : B4A7DDA81HH1420542829526062
gshh : r1---sn-4g57kue6.googlevideo.com
Video
ID : 1
Format : AVC
Format/Info : Advanced Video Codec
Format profile : [email protected]
Format settings, CABAC : Yes
Format settings, ReFrames : 1 frame
Codec ID : avc1
Codec ID/Info : Advanced Video Coding
Duration : 12mn 25s
Bit rate : 1 204 Kbps
Maximum bit rate : 4 637 Kbps
Width : 1 280 pixels
Height : 720 pixels
Display aspect ratio : 16:9
Frame rate mode : Constant
Frame rate : 24.000 fps
Color space : YUV
Chroma subsampling : 4:2:0
Bit depth : 8 bits
Scan type : Progressive
Bits/(Pixel*Frame) : 0.054
Stream size : 107 MiB (86%)
Tagged date : UTC 2015-01-04 19:32:04
Audio
ID : 2
Format : AAC
Format/Info : Advanced Audio Codec
Format profile : LC
Codec ID : 40
Duration : 12mn 25s
Bit rate mode : Variable
Bit rate : 192 Kbps
Maximum bit rate : 203 Kbps
Channel(s) : 2 channels
Channel positions : Front: L R
Sampling rate : 44.1 KHz
Compression mode : Lossy
Stream size : 17.1 MiB (14%)
Title : IsoMedia File Produced by Google, 5-11-2011
Encoded date : UTC 2015-01-04 19:32:03
Tagged date : UTC 2015-01-04 19:32:04

Скриншоты












Последний раз редактировалось: Jasur S (2015-11-18 21:38), всего редактировалось 3 раз(а)

Создавать темы 18-Ноя-2015 10:17

[Профиль]  [ЛС] 

Jasur S ®

Стаж: 4 года 7 месяцев

Сообщений: 110

Симпатии: 111

Надеюсь вам понравится данная вэб-дорамка.) Следующие несколько релизов в данном разделе будут вэб дорамами)"Всем приятного просмотра"

Создавать темы 18-Ноя-2015 11:55

[Профиль]  [ЛС] 
Показать сообщения:    
Ответить на тему

Текущее время: 20-Ноя 12:47

Часовой пояс: UTC + 5



Вы не можете начинать темы
Вы не можете отвечать на сообщения
Вы не можете редактировать свои сообщения
Вы не можете удалять свои сообщения
Вы не можете голосовать в опросах
Вы не можете прикреплять файлы к сообщениям
Вы не можете скачивать файлы