Дьявольский / The Diabolical (Алистер Легранд) [2015, США, ужасы, фантастика, триллер, HDRip] (VO : [Миллиган]) (Sub Rus)

Ответить на тему
 

lucky999 ®

Стаж: 2 года 1 месяц

Сообщений: 32

Симпатии: 43

Дьявольский / The Diabolical
Страна
: США
Жанр: ужасы, фантастика, триллер
Год выпуска: 2015
Продолжительность: 01:26:09
Перевод: Любительский одноголосый Доп. инфо о переводе [Миллиган]
Cубтитры: русские
Режиссер: Алистер Легранд
В ролях: Уилмер Калдерон, Курт Карли, Меррин Данги, Джо Эгендер, Патрик Фишлер, Арджун Гупта, Трей Холлэнд, Томас Куц, Эли Лартер, Этан Джош Ли
Описание: Когда Мэдисон, мать-одиночка, и двое её детей сталкиваются с необъяснимыми явлениями в своём доме, она просит помощи у своего парня-учёного, который намерен уничтожить зловещий дух.
Доп. информация: Режиссер: Алистер Легранд
Сценарий: Люк Харвис, Алистер Легранд
Продюсер: Росс М. Динерштейн, Джэми Кармайкл, Джоэль Генри
Оператор: Джон Фрост
Композитор: Йен Хултквист
Художник: Мона Нам, Диана Райт, Мишель Томпсон
Монтаж: Блэр Миллер
IMDB рейтинг: 7.5/10
КиноПоиск рейтинг: 0.0/10
Качество видео: HDRip
Формат видео: AVI
Видео: XviD, 2037 kb/s, 720x304
Аудио: AC3, 192 kb/s (2 ch) | RUS
Аудио 2: AC3, 192 kb/s (2 ch) | ENG

MediaInfo

General
Complete name : E:\torrent\The.Diabolical.2015.avi
Format : AVI
Format/Info : Audio Video Interleave
File size : 1.47 GiB
Duration : 1h 26mn
Overall bit rate : 2 436 Kbps
Movie name : копирайт на перевод и озвучку
Director : Миллиган
Writing application : VirtualDubMod 1.5.10.1 (build 2366/release)
Copyright : asiamorte.com
Comment : релиз - http://asiamorte.com
Video
ID : 0
Format : MPEG-4 Visual
Format profile : Advanced [email protected]
Format settings, BVOP : 2
Format settings, QPel : No
Format settings, GMC : No warppoints
Format settings, Matrix : Default (H.263)
Codec ID : DIVX
Codec ID/Info : Project Mayo
Codec ID/Hint : DivX 4
Duration : 1h 26mn
Bit rate : 2 038 Kbps
Width : 720 pixels
Height : 304 pixels
Display aspect ratio : 2.35:1
Frame rate : 23.976 fps
Color space : YUV
Chroma subsampling : 4:2:0
Bit depth : 8 bits
Scan type : Progressive
Compression mode : Lossy
Bits/(Pixel*Frame) : 0.388
Stream size : 1.23 GiB (84%)
Writing library : XviD 73
Audio #1
ID : 1
Format : AC-3
Format/Info : Audio Coding 3
Mode extension : CM (complete main)
Codec ID : 2000
Duration : 1h 26mn
Bit rate mode : Constant
Bit rate : 192 Kbps
Channel(s) : 2 channels
Channel positions : Front: L R
Sampling rate : 48.0 KHz
Bit depth : 16 bits
Compression mode : Lossy
Delay relative to video : 15ms
Stream size : 118 MiB (8%)
Alignment : Split accross interleaves
Interleave, duration : 42 ms (1.00 video frame)
Interleave, preload duration : 500 ms
Audio #2
ID : 2
Format : AC-3
Format/Info : Audio Coding 3
Mode extension : CM (complete main)
Codec ID : 2000
Duration : 1h 26mn
Bit rate mode : Constant
Bit rate : 192 Kbps
Channel(s) : 2 channels
Channel positions : Front: L R
Sampling rate : 48.0 KHz
Bit depth : 16 bits
Compression mode : Lossy
Delay relative to video : 15ms
Stream size : 118 MiB (8%)
Alignment : Split accross interleaves
Interleave, duration : 42 ms (1.00 video frame)
Interleave, preload duration : 500 ms

Скриншоты

Создавать темы 18-Ноя-2015 17:54

[Профиль]  [ЛС] 
Показать сообщения:    
Ответить на тему

Текущее время: 23-Окт 11:01

Часовой пояс: UTC + 5



Вы не можете начинать темы
Вы не можете отвечать на сообщения
Вы не можете редактировать свои сообщения
Вы не можете удалять свои сообщения
Вы не можете голосовать в опросах
Вы не можете прикреплять файлы к сообщениям
Вы не можете скачивать файлы