Всё могу / Absolutely Anything (Терри Джонс) [2015, Великобритания, США, Комедия, Фантастика, DVDRip] (Dub) (Original Eng)

Ответить на тему
 

Next_1 ®

Стаж: 3 года 11 месяцев

Сообщений: 32

Симпатии: 53

Всё могу / Absolutely Anything
Страна: Великобритания, США
Жанр: Комедия, Фантастика
Год выпуска: 2015
Продолжительность: 01:21:47
Перевод: Профессиональный (дублированный)
Cубтитры: нет
Оригинальная аудиодорожка: английский
Режиссер: Терри Джонс
В ролях: Джоанна Ламли, Джон Клиз, Кейт Бекинсейл, Робин Уильямс, Саймон Пегг, Терри Гиллиам, Эдди Иззард, Эмма Пирсон, Эрик Айдл, Роб Риггл
Описание: Злобные инопланетяне, собираясь уничтожить Землю, дают ей последний шанс — наделяют учителя-неудачника Ника Кларка способностью исполнять любые желания. Он бы мог положить конец войнам или воскресить величайшие умы всех времен. Вот только как заманчиво: стать президентом США, соблазнить неприступную красотку или заставить заговорить собственного пса. Спасет ли Ник Кларк землю или устроит полный беспредел?
Качество видео: DVDRip
Формат видео: AVI
Видео: Xvid 720x400 25fps 1956kbps [V: mpeg4 advanced simple profile, yuv420p, 720x400, 1956 kb/s]
Аудио: Dolby AC3 48000Hz stereo 192kbps [A: ac3, 48000 Hz, stereo, 192 kb/s]
Аудио 2: Dolby AC3 48000Hz 6ch 384kbps [A: ac3, 48000 Hz, 5.1, 384 kb/s]

MediaInfo

General
Complete name : E:\Торрент\Фильмы и видео\HD\Vsy0_m0gu_2015_L2_DVDRip.avi
Format : AVI
Format/Info : Audio Video Interleave
File size : 1.46 GiB
Duration : 1h 21mn
Overall bit rate : 2 547 Kbps
Movie name : Vsy0.m0gu.2015.L2.DVDRip.ELEKTRI4KA.uniongang.tv
Writing application : VirtualDubMod 1.5.10.3 | www.virtualdub-fr.org || (build 2550/release)
Copyright : UNIONGANG&RUSTORRENTS
Video
ID : 0
Format : MPEG-4 Visual
Format profile : Advanced [email protected]
Format settings, BVOP : 2
Format settings, QPel : No
Format settings, GMC : No warppoints
Format settings, Matrix : Default (MPEG)
Codec ID : XVID
Codec ID/Hint : XviD
Duration : 1h 21mn
Bit rate : 1 957 Kbps
Width : 720 pixels
Height : 400 pixels
Display aspect ratio : 16:9
Frame rate : 25.000 fps
Color space : YUV
Chroma subsampling : 4:2:0
Bit depth : 8 bits
Scan type : Progressive
Compression mode : Lossy
Bits/(Pixel*Frame) : 0.272
Stream size : 1.12 GiB (77%)
Writing library : XviD 1.2.1 (UTC 2008-12-04)
Audio #1
ID : 1
Format : AC-3
Format/Info : Audio Coding 3
Mode extension : CM (complete main)
Format settings, Endianness : Big
Codec ID : 2000
Duration : 1h 21mn
Bit rate mode : Constant
Bit rate : 192 Kbps
Channel(s) : 2 channels
Channel positions : Front: L R
Sampling rate : 48.0 KHz
Bit depth : 16 bits
Compression mode : Lossy
Stream size : 112 MiB (8%)
Alignment : Split accross interleaves
Interleave, duration : 40 ms (1.00 video frame)
Interleave, preload duration : 500 ms
Audio #2
ID : 2
Format : AC-3
Format/Info : Audio Coding 3
Mode extension : CM (complete main)
Format settings, Endianness : Big
Codec ID : 2000
Duration : 1h 21mn
Bit rate mode : Constant
Bit rate : 384 Kbps
Channel(s) : 6 channels
Channel positions : Front: L C R, Side: L R, LFE
Sampling rate : 48.0 KHz
Bit depth : 16 bits
Compression mode : Lossy
Stream size : 225 MiB (15%)
Alignment : Split accross interleaves
Interleave, duration : 40 ms (1.00 video frame)
Interleave, preload duration : 500 ms

Скриншот c названием фильма

Скриншоты




Создавать темы 18-Ноя-2015 18:02

[Профиль]  [ЛС] 

hamilion

Стаж: 5 лет

Сообщений: 155

Симпатии: 14

мне фильм еще по трейлеру не понравился

Создавать темы 18-Ноя-2015 20:47

[Профиль]  [ЛС] 

Sherzod32

Стаж: 1 год 11 месяцев

Сообщений: 2

Симпатии: 2

[img]крута[/img]

Создавать темы 19-Ноя-2015 11:20

[Профиль]  [ЛС] 

gold_man

Стаж: 8 лет

Сообщений: 162

Симпатии: 18

исправьте перевод ! одноголсный а не Профессиональный

Создавать темы 19-Ноя-2015 21:22

[Профиль]  [ЛС] 

giga

Стаж: 5 лет 3 месяца

Сообщений: 192

Симпатии: 22

перевод точно дублированный?

Создавать темы 25-Ноя-2015 01:57

[Профиль]  [ЛС] 

giga

Стаж: 5 лет 3 месяца

Сообщений: 192

Симпатии: 22

двухголосный

Создавать темы 29-Ноя-2015 23:27

[Профиль]  [ЛС] 
Показать сообщения:    
Ответить на тему

Текущее время: 21-Сен 00:58

Часовой пояс: UTC + 5



Вы не можете начинать темы
Вы не можете отвечать на сообщения
Вы не можете редактировать свои сообщения
Вы не можете удалять свои сообщения
Вы не можете голосовать в опросах
Вы не можете прикреплять файлы к сообщениям
Вы не можете скачивать файлы