Хитмэн: Агент 47 (HD 1080p) / Hitman: Agent 47 (Александр Бах) [2015, Германия, США, Индонезия, Боевик, Триллер, Фантастика, BDRip] [(HD 1080p)] (Dub) (Original Eng)

Ответить на тему
 

Next_1 ®

Стаж: 4 года

Сообщений: 32

Симпатии: 53

Хитмэн: Агент 47 (HD 1080p) / Hitman: Agent 47 / (HD 1080p)
Страна: Германия, США, Индонезия
Жанр: Боевик, Триллер, Фантастика
Год выпуска: 2015
Продолжительность: 01:36:17
Перевод: Профессиональный (дублированный)
Cубтитры: нет
Оригинальная аудиодорожка: английский
Режиссер: Александр Бах
В ролях: Закари Куинто, Руперт Френд, Ханна Уэр, Анджела Бейби, Дэн Баккедаль, Михаэль Борнхюттер, Томас Кречман, Киран Хайндс, Шарлин Бек, Мелисса Бротон
Описание: История об элитном убийце, созданном при помощи генной инженерии, который объединяется с женщиной, чтобы помочь ей найти отца и раскрыть тайну своего происхождения.
Качество видео: BDRip
Формат видео: MKV
Видео: MPEG4 Video (H264) 1920x808 23.976fps [V: English [eng] (h264 high L4.1, yuv420p, 1920x808) [default]]
Аудио: DTS 48000Hz 6ch 1536kbps [A: English [eng] (dts, 48000 Hz, 5.1, 1536 kb/s)]
Аудио 2: Dolby AC3 48000Hz 6ch 448kbps [A: Лицензия [rus] (ac3, 48000 Hz, 5.1, 448 kb/s) [default]]

MediaInfo

General
Unique ID : 254643834526306328204645903395813891998 (0xBF929E5D0391E2EA99A5F4B7A5649F9E)
Complete name : E:\Торрент\Фильмы и видео\HD\Hitman.Agent.47.2015.D.BDRip.1080p.mkv
Format : Matroska
Format version : Version 4 / Version 2
File size : 7.95 GiB
Duration : 1h 36mn
Overall bit rate : 11.8 Mbps
Encoded date : UTC 2015-11-17 13:02:06
Writing application : mkvmerge v8.5.0 ('Vanishing Act') 64bit
Writing library : libebml v1.3.1 + libmatroska v1.4.2
DURATION : 01:36:16.768000000
NUMBER_OF_FRAMES : 180524
NUMBER_OF_BYTES : 323499008
_STATISTICS_WRITING_APP : mkvmerge v8.5.0 ('Vanishing Act') 64bit
_STATISTICS_WRITING_DATE_UTC : 2015-11-17 13:02:06
_STATISTICS_TAGS : BPS DURATION NUMBER_OF_FRAMES NUMBER_OF_BYTES
Video
ID : 1
Format : AVC
Format/Info : Advanced Video Codec
Format profile : [email protected]
Format settings, CABAC : Yes
Format settings, ReFrames : 5 frames
Codec ID : V_MPEG4/ISO/AVC
Duration : 1h 36mn
Bit rate : 9 935 Kbps
Width : 1 920 pixels
Height : 808 pixels
Display aspect ratio : 2.40:1
Frame rate mode : Constant
Frame rate : 23.976 fps
Color space : YUV
Chroma subsampling : 4:2:0
Bit depth : 8 bits
Scan type : Progressive
Bits/(Pixel*Frame) : 0.267
Stream size : 6.47 GiB (81%)
Writing library : x264 core 148 r2638 7599210
Encoding settings : cabac=1 / ref=5 / deblock=1:0:0 / analyse=0x3:0x133 / me=umh / subme=7 / psy=1 / psy_rd=1.00:0.00 / mixed_ref=1 / me_range=16 / chroma_me=1 / trellis=1 / 8x8dct=1 / cqm=0 / deadzone=21,11 / fast_pskip=0 / chroma_qp_offset=-2 / threads=12 / lookahead_threads=2 / sliced_threads=0 / nr=0 / decimate=1 / interlaced=0 / bluray_compat=0 / constrained_intra=0 / bframes=3 / b_pyramid=2 / b_adapt=1 / b_bias=0 / direct=1 / weightb=1 / open_gop=0 / weightp=2 / keyint=250 / keyint_min=23 / scenecut=40 / intra_refresh=0 / rc_lookahead=40 / rc=2pass / mbtree=1 / bitrate=9935 / ratetol=1.0 / qcomp=0.60 / qpmin=0 / qpmax=69 / qpstep=4 / cplxblur=20.0 / qblur=0.5 / ip_ratio=1.40 / aq=1:1.00
Language : English
Default : Yes
Forced : No
DURATION : 01:36:16.781000000
NUMBER_OF_FRAMES : 138504
NUMBER_OF_BYTES : 7116267098
_STATISTICS_WRITING_APP : mkvmerge v8.5.0 ('Vanishing Act') 64bit
_STATISTICS_WRITING_DATE_UTC : 2015-11-17 13:02:06
_STATISTICS_TAGS : BPS DURATION NUMBER_OF_FRAMES NUMBER_OF_BYTES
Audio #1
ID : 2
Format : DTS
Format/Info : Digital Theater Systems
Format profile : ES
Mode : 16
Format settings, Endianness : Big
Codec ID : A_DTS
Duration : 1h 36mn
Bit rate mode : Constant
Bit rate : 1 509 Kbps
Channel(s) : 6 channels
Channel positions : Front: L C R, Side: L R, LFE
Sampling rate : 48.0 KHz
Bit depth : 24 bits
Compression mode : Lossy
Stream size : 1.01 GiB (13%)
Language : English
Default : No
Forced : No
Audio #2
ID : 3
Format : AC-3
Format/Info : Audio Coding 3
Mode extension : CM (complete main)
Format settings, Endianness : Big
Codec ID : A_AC3
Duration : 1h 36mn
Bit rate mode : Constant
Bit rate : 448 Kbps
Channel(s) : 6 channels
Channel positions : Front: L C R, Side: L R, LFE
Sampling rate : 48.0 KHz
Bit depth : 16 bits
Compression mode : Lossy
Stream size : 309 MiB (4%)
Title : Лицензия
Language : Russian
Default : Yes
Forced : No
Menu
00:00:00.000 : en:00:00:00.000
00:07:11.348 : en:00:07:11.348
00:09:02.959 : en:00:09:02.959
00:13:11.582 : en:00:13:11.582
00:16:21.606 : en:00:16:21.606
00:19:22.787 : en:00:19:22.787
00:24:43.816 : en:00:24:43.816
00:27:19.179 : en:00:27:19.179
00:30:18.692 : en:00:30:18.692
00:33:03.815 : en:00:33:03.815
00:38:18.713 : en:00:38:18.713
00:43:11.756 : en:00:43:11.756
00:46:53.436 : en:00:46:53.436
00:50:39.870 : en:00:50:39.870
00:54:02.531 : en:00:54:02.531
00:59:50.587 : en:00:59:50.587
01:06:01.749 : en:01:06:01.749
01:09:06.142 : en:01:09:06.142
01:13:23.190 : en:01:13:23.190
01:16:55.319 : en:01:16:55.319
01:21:15.746 : en:01:21:15.746
01:25:20.824 : en:01:25:20.824
01:28:06.156 : en:01:28:06.156
01:31:17.847 : en:01:31:17.847

Скриншот c названием фильма

Скриншоты




Создавать темы 18-Ноя-2015 19:24

[Профиль]  [ЛС] 

Next_1 ®

Стаж: 4 года

Сообщений: 32

Симпатии: 53

Думаю можно дать золото...

Создавать темы 18-Ноя-2015 19:25

[Профиль]  [ЛС] 

Next_1 ®

Стаж: 4 года

Сообщений: 32

Симпатии: 53

Уважаемые модераторы проверьте. При наличии ошибок просьба удалить релиз...

Создавать темы 19-Ноя-2015 13:07

[Профиль]  [ЛС] 

hamilion

Стаж: 5 лет 1 месяц

Сообщений: 155

Симпатии: 14

вчера посмотрел.
При наличии ошибок просьба удалить релиз...
тише-тише, исправить лучше по моему.

Создавать темы 19-Ноя-2015 16:37

[Профиль]  [ЛС] 
Показать сообщения:    
Ответить на тему

Текущее время: 24-Окт 12:39

Часовой пояс: UTC + 5



Вы не можете начинать темы
Вы не можете отвечать на сообщения
Вы не можете редактировать свои сообщения
Вы не можете удалять свои сообщения
Вы не можете голосовать в опросах
Вы не можете прикреплять файлы к сообщениям
Вы не можете скачивать файлы