В Некотором Царстве / Однажды в сказке / Once Upon a Time / Сезон: 5 / Серии: 1-22 из 22 (Грег Биман, Марк Майлод, Дин Уайт) [2015, фэнтези, приключения, WEB-DLRip] DVO (Кубик в Кубе)

Ответить на тему
 

GRIMM ®

Стаж: 6 лет 9 месяцев

Сообщений: 811

Симпатии: 172

Однажды в сказке / Once Upon a Time
Сезон 5 Серия 1-22
-Год выпуска: 2015
Страна: США
Жанр: Фэнтези, приключения
Продолжительность: ~ 00:43:00 серия-Перевод: Профессиональный двухголосый закадровый Кубик в Кубе-Режиссёр: Грег Биман, Марк Майлод, Дин Уайт-В ролях: Дженнифер Моррисон, Джиннифер Гудвин, Лана Парийя, Джошуа Даллас, Джаред Гилмор, Роберт Карлайл, Рафаэль Сбардж, Меган Ори, Эйон Бэйли, Беверли Эллиотт-Описание: Новые умопомрачительные приключения Эммы Свон, Белоснежки, Прекрасного Принца, Злой Королевы, Крюка, а также других представителей Сказочного Мира. Они привыкают к тому, что ныне Эмма – Темная и принимаются искать Мерлина. Это путешествие перенесет наших героев из Зачарованного Леса в Камелот и преподнесет массу сюрпризов, среди которых знакомство с храброй и упрямой шотландской принцессой по имени Мерида.-Качество: WEB-DLRip
Формат: AVI
Видео кодек: XviD
Аудио кодек: MP3
Видео: XviD, ~ 1500 kbps, 720x400 (16:9), 23,976 fps
Аудио: AC3, 6 ch, 384 kbps

MediaInfo

E:\Сериалы\Once Upon a Time (S05) Кубик в кубе\Once Upon a Time. S05E01.kvk.WEB-DLRip.avi
General
Complete name : E:\Сериалы\Once Upon a Time (S05) Кубик в кубе\Once Upon a Time. S05E01.kvk.WEB-DLRip.avi
Format : AVI
Format/Info : Audio Video Interleave
File size : 583 MiB
Duration : 43mn 4s
Overall bit rate : 1 892 Kbps
Writing application : VirtualDubMod 1.5.10.2 (build 2540/release)
Writing library : VirtualDubMod build 2540/release
Video #0
ID : 0
Format : MPEG-4 Visual
Format profile : Advanced [email protected]
Format settings, BVOP : 2
Format settings, QPel : No
Format settings, GMC : No warppoints
Format settings, Matrix : Custom
Codec ID : XVID
Codec ID/Hint : XviD
Duration : 43mn 4s
Bit rate : 1 499 Kbps
Width : 720 pixels
Height : 400 pixels
Display aspect ratio : 16:9
Frame rate : 23.976 fps
Color space : YUV
Chroma subsampling : 4:2:0
Bit depth : 8 bits
Scan type : Progressive
Compression mode : Lossy
Bits/(Pixel*Frame) : 0.217
Stream size : 462 MiB (79%)
Writing library : XviD 1.2.1 (UTC 2008-12-04)
Audio #1
ID : 1
Format : AC-3
Format/Info : Audio Coding 3
Mode extension : CM (complete main)
Format settings, Endianness : Big
Codec ID : 2000
Duration : 43mn 4s
Bit rate mode : Constant
Bit rate : 384 Kbps
Channel(s) : 6 channels
Channel positions : Front: L C R, Side: L R, LFE
Sampling rate : 48.0 KHz
Bit depth : 16 bits
Compression mode : Lossy
Stream size : 118 MiB (20%)
Alignment : Split accross interleaves
Interleave, duration : 42 ms (1.00 video frame)
Interleave, preload duration : 500 ms

Скриншоты




Последний раз редактировалось: GRIMM (2016-05-24 22:23), всего редактировалось 6 раз(а)

Создавать темы 19-Ноя-2015 18:21

[Профиль]  [ЛС] 

GRIMM ®

Стаж: 6 лет 9 месяцев

Сообщений: 811

Симпатии: 172

Добавил 6 серию

Создавать темы 19-Ноя-2015 18:29

[Профиль]  [ЛС] 

GRIMM ®

Стаж: 6 лет 9 месяцев

Сообщений: 811

Симпатии: 172

Добавил 7 серию

Создавать темы 04-Дек-2015 16:42

[Профиль]  [ЛС] 

GRIMM ®

Стаж: 6 лет 9 месяцев

Сообщений: 811

Симпатии: 172

Добавил 8-9-10-11 серию

Создавать темы 13-Янв-2016 21:52

[Профиль]  [ЛС] 

GRIMM ®

Стаж: 6 лет 9 месяцев

Сообщений: 811

Симпатии: 172

Добавил 12 серию

Создавать темы 17-Мар-2016 20:47

[Профиль]  [ЛС] 

GRIMM ®

Стаж: 6 лет 9 месяцев

Сообщений: 811

Симпатии: 172

Добавил 13 серию

Создавать темы 26-Мар-2016 22:18

[Профиль]  [ЛС] 

GRIMM ®

Стаж: 6 лет 9 месяцев

Сообщений: 811

Симпатии: 172

Добавил 14-15 серию

Создавать темы 05-Апр-2016 19:28

[Профиль]  [ЛС] 

GRIMM ®

Стаж: 6 лет 9 месяцев

Сообщений: 811

Симпатии: 172

Добавил 16-17-18-19-20-21-22 серию ФИНАЛ СЕЗОНА
(Озвучена другая студия)

Создавать темы 24-Май-2016 22:25

[Профиль]  [ЛС] 

suho

Стаж: 2 года

Сообщений: 57

Симпатии: 8

974687Добавил 16-17-18-19-20-21-22 серию ФИНАЛ СЕЗОНА
(Озвучена другая студия)
СПАСИБО КЛАСССС

Создавать темы 01-Июн-2016 23:59

[Профиль]  [ЛС] 

suho

Стаж: 2 года

Сообщений: 57

Симпатии: 8

пжл скоростиииии 92 % 23 серия пжл

Создавать темы 02-Июн-2016 01:51

[Профиль]  [ЛС] 
Показать сообщения:    
Ответить на тему

Текущее время: 24-Окт 07:26

Часовой пояс: UTC + 5



Вы не можете начинать темы
Вы не можете отвечать на сообщения
Вы не можете редактировать свои сообщения
Вы не можете удалять свои сообщения
Вы не можете голосовать в опросах
Вы не можете прикреплять файлы к сообщениям
Вы не можете скачивать файлы