Манхеттэн / Manhattan (Вуди Аллен / Woody Allen) [1979, США, драма, мелодрама, комедия, DVDRip] (DVO) (Original Eng)

Ответить на тему
 

ladysco ®

Стаж: 5 лет 5 месяцев

Сообщений: 40

Симпатии: 56

Манхеттэн / Manhattan
Страна: США
Жанр: драма, мелодрама, комедия
Год выпуска: 1979
Продолжительность: 01:32:15
Перевод: Профессиональный (двухголосый закадровый)
Режиссер: Вуди Аллен / Woody Allen
В ролях: Вуди Аллен, Дайан Китон, Майкл Мерфи, Мэриель Хэмингуэй, Мэрил Стрип, Энн Бирн Хоффман, Карен Людвиг, Майкл О'Донохью, Виктор Труро, Тиса Фэрроу
Описание: Главный герой, немолодой интеллигент, никак не может определиться со своими симпатиями, что закономерно приводит к проблемам с любимыми женщинами. Однако ещё более интересным оказывается тот фон, на котором всё это происходит — фон большого города, кипящего жизнью Манхэттена, фон интеллектуальной жизни, зачастую являющейся лишь проявлением безделья, некомпетентности и глупости интеллигенции, готовой вынести «приговор» любому произведению искусства, но зачастую не способной прочувствовать его
 
Качество видео: DVDRip
Формат видео: AVI
Видео: DivX 5, 704x288, 25.000 fps, 1 723 Kbps, 0.340 bits/pixel
Аудио RUS: 48 kHz, 2 ch, 192 kbps
Аудио ENG: 48 kHz, 2 ch, 192 kbps

MediaInfo

Format : AVI
Format/Info : Audio Video Interleave
File size : 1.37 GiB
Duration : 1h 32mn
Overall bit rate : 2 122 Kbps
Writing application : VirtualDubMod 1.5.10.2 (build 2540/release)
Writing library : VirtualDubMod build 2540/release
Video
ID : 0
Format : MPEG-4 Visual
Format settings, BVOP : 3
Format settings, QPel : No
Format settings, GMC : No warppoints
Format settings, Matrix : Default (H.263)
Muxing mode : Packed bitstream
Codec ID : DX50
Codec ID/Hint : DivX 5
Duration : 1h 32mn
Bit rate : 1 723 Kbps
Width : 704 pixels
Height : 288 pixels
Display aspect ratio : 2.40:1
Frame rate : 25.000 fps
Color space : YUV
Chroma subsampling : 4:2:0
Bit depth : 8 bits
Scan type : Progressive
Compression mode : Lossy
Bits/(Pixel*Frame) : 0.340
Stream size : 1.11 GiB (81%)
Writing library : DivX 6.8.5 (UTC 2009-08-20)
Audio #1
ID : 1
Format : AC-3
Format/Info : Audio Coding 3
Mode extension : CM (complete main)
Format settings, Endianness : Big
Codec ID : 2000
Duration : 1h 32mn
Bit rate mode : Constant
Bit rate : 192 Kbps
Channel(s) : 2 channels
Channel positions : Front: L R
Sampling rate : 48.0 KHz
Bit depth : 16 bits
Compression mode : Lossy
Stream size : 127 MiB (9%)
Alignment : Split accross interleaves
Interleave, duration : 40 ms (1.00 video frame)
Interleave, preload duratio : 500 ms
Audio #2
ID : 2
Format : AC-3
Format/Info : Audio Coding 3
Mode extension : CM (complete main)
Format settings, Endianness : Big
Codec ID : 2000
Duration : 1h 32mn
Bit rate mode : Constant
Bit rate : 192 Kbps
Channel(s) : 2 channels
Channel positions : Front: L R
Sampling rate : 48.0 KHz
Bit depth : 16 bits
Compression mode : Lossy
Stream size : 127 MiB (9%)
Alignment : Split accross interleaves
Interleave, duration : 40 ms (1.00 video frame)
Interleave, preload duratio : 500 ms

Скриншоты

Создавать темы 19-Ноя-2015 18:25

[Профиль]  [ЛС] 
Показать сообщения:    
Ответить на тему

Текущее время: 14-Дек 14:50

Часовой пояс: UTC + 5



Вы не можете начинать темы
Вы не можете отвечать на сообщения
Вы не можете редактировать свои сообщения
Вы не можете удалять свои сообщения
Вы не можете голосовать в опросах
Вы не можете прикреплять файлы к сообщениям
Вы не можете скачивать файлы