Другой мир / Another World (Эйтан Реувин) [2015, Израиль, Боевик, Ужасы, Фантастика, WEB-DLRip] (MVO)

Ответить на тему
 

Hurracan ®

Стаж: 1 год 10 месяцев

Сообщений: 79

Симпатии: 80

Другой мир / Another World
Страна: Израиль
Жанр: Боевик, Ужасы, Фантастика
Год выпуска: 2015
Продолжительность: 01:39:53
Перевод: Любительский (многоголосый закадровый)
Cубтитры: нет
Режиссер: Эйтан Реувин
В ролях: Ларри Бучинс, Зэк Коэн, Сюзанна Гшвендтнер,Давина Кевелсон, Давид Лавенски, Карл МакКристал
Описание: В пост-апокалиптическом будущем, во время создания биологического оружия, что-то пошло не так, и четырем выжившим приходится защищать себя от «зараженных» — бессмысленных убийц. Они борются, чтобы выжить и понять, что же на самом деле произошло.
Доп. информация:
Сценаристы: Эйтан Реувин, Шломи Авинер, Майкл Биринбаум
Продюсеры: Эйтан Реувин, Шломи Авинер
Бюджет: $1 000 000
Качество видео: WEBDLRip
Формат видео: AVI
Видео: Xvid 720x384 24fps 1496kbps
Аудио:
Dolby AC3 48000Hz stereo 192kbps:RUS
Dolby AC3 48000Hz 6ch 384kbps:ENG

MediaInfo

General
Complete name : C:\Users\Hurracan\Downloads\Video\Another.World.2015.L2.WEB-DLRip.avi
Format : AVI
Format/Info : Audio Video Interleave
File size : 1.46 GiB
Duration : 1h 39mn
Overall bit rate : 2 087 Kbps
Writing application : VirtualDubMod 1.5.10.2 (build 2540/release)
Writing library : VirtualDubMod build 2540/release
Copyright : ExKinoRay
Video
ID : 0
Format : MPEG-4 Visual
Format profile : Advanced [email protected]
Format settings, BVOP : 1
Format settings, QPel : No
Format settings, GMC : No warppoints
Format settings, Matrix : Custom
Codec ID : XVID
Codec ID/Hint : XviD
Duration : 1h 39mn
Bit rate : 1 497 Kbps
Width : 720 pixels
Height : 384 pixels
Display aspect ratio : 1.85:1
Frame rate : 24.000 fps
Color space : YUV
Chroma subsampling : 4:2:0
Bit depth : 8 bits
Scan type : Progressive
Compression mode : Lossy
Bits/(Pixel*Frame) : 0.226
Stream size : 1.04 GiB (72%)
Writing library : XviD 73
Audio #1
ID : 1
Format : AC-3
Format/Info : Audio Coding 3
Mode extension : CM (complete main)
Format settings, Endianness : Big
Codec ID : 2000
Duration : 1h 39mn
Bit rate mode : Constant
Bit rate : 192 Kbps
Channel(s) : 2 channels
Channel positions : Front: L R
Sampling rate : 48.0 KHz
Compression mode : Lossy
Stream size : 137 MiB (9%)
Alignment : Split accross interleaves
Interleave, duration : 42 ms (1.00 video frame)
Interleave, preload duration : 500 ms
Title : Voron
Audio #2
ID : 2
Format : AC-3
Format/Info : Audio Coding 3
Mode extension : CM (complete main)
Format settings, Endianness : Big
Codec ID : 2000
Duration : 1h 39mn
Bit rate mode : Constant
Bit rate : 384 Kbps
Channel(s) : 6 channels
Channel positions : Front: L C R, Side: L R, LFE
Sampling rate : 48.0 KHz
Compression mode : Lossy
Stream size : 274 MiB (18%)
Alignment : Split accross interleaves
Interleave, duration : 42 ms (1.00 video frame)
Interleave, preload duration : 500 ms

Скриншоты




Создавать темы 19-Ноя-2015 18:39

[Профиль]  [ЛС] 

mars751

Стаж: 5 лет 4 месяца

Сообщений: 227

Симпатии: 113

блин по описанию фильм показался крутым) скажу одно, зря качал!

Создавать темы 21-Ноя-2015 19:11

[Профиль]  [ЛС] 

SNIL

Стаж: 5 лет 7 месяцев

Сообщений: 2624

Симпатии: 341

959248блин по описанию фильм показался крутым) скажу одно, зря качал!
Это можно было по скринам понять)

Создавать темы 22-Ноя-2015 07:38

[Профиль]  [ЛС] 

mars751

Стаж: 5 лет 4 месяца

Сообщений: 227

Симпатии: 113

SNIL, да описание фильма меня заинтересовал) подумал что фильм стоит посмотреть

Создавать темы 22-Ноя-2015 08:52

[Профиль]  [ЛС] 
Показать сообщения:    
Ответить на тему

Текущее время: 21-Авг 17:13

Часовой пояс: UTC + 5



Вы не можете начинать темы
Вы не можете отвечать на сообщения
Вы не можете редактировать свои сообщения
Вы не можете удалять свои сообщения
Вы не можете голосовать в опросах
Вы не можете прикреплять файлы к сообщениям
Вы не можете скачивать файлы