Призраки: Лучшая участь / Spooks: The Greater Good (Бхарат Наллури) [2015, Великобритания, Драма, Триллер, HDRip] (MVO)

Ответить на тему
 

Hurracan ®

Стаж: 1 год 11 месяцев

Сообщений: 79

Симпатии: 80

Призраки: Лучшая участь / Spooks: The Greater Good
Страна: Великобритания
Жанр: Драма, Триллер
Год выпуска: 2015
Продолжительность: 01:43:49
Перевод: Любительский (многоголосый закадровый)
Cубтитры: нет
Режиссер: Бхарат Наллури
В ролях: Дэвид Хэрвуд, Кит Харингтон, Тим МакИннерни, Таппенс Мидлтон, Дженнифер Или, Лара Пулвер, Питер Фёрт, Элиес Габел, Оливер Гилберт, Элинор Мацуура
Описание: Когда террорист убегает из-под опеки в ходе передачи, Уилл Кромби должен объединиться с опальным шефом разведки MI5 Гарри Пирсом, чтобы разыскать его перед неминуемой террористической атакой на Лондон.
Доп. информация:
Сценаристы: Дэвид Волстенкрофт, Джонатан Брэкли, Сэм Винсент
Продюсеры: Джейн Фезерстоун, Стивен Гарретт, Олли Мэдден
Качество видео: HDRip
Формат видео: AVI
Видео: Xvid 720x304 24fps 1427kbps
Аудио: Dolby AC3 48000Hz 6ch 448kbps

MediaInfo

General
Complete name : C:\Users\Hurracan\Downloads\Video\Pry3raky.Luchshaya.Ucyast.2015.MVO.HDRip.1400MB.avi
Format : AVI
Format/Info : Audio Video Interleave
File size : 1.37 GiB
Duration : 1h 43mn
Overall bit rate : 1 885 Kbps
Writing application : VirtualDubMod 1.5.10.2 (build 2540/release)
Writing library : VirtualDubMod build 2540/release
Video
ID : 0
Format : MPEG-4 Visual
Format profile : Advanced [email protected]
Format settings, BVOP : 2
Format settings, QPel : No
Format settings, GMC : No warppoints
Format settings, Matrix : Default (MPEG)
Codec ID : XVID
Codec ID/Hint : XviD
Duration : 1h 43mn
Bit rate : 1 428 Kbps
Width : 720 pixels
Height : 304 pixels
Display aspect ratio : 2.35:1
Frame rate : 24.000 fps
Color space : YUV
Chroma subsampling : 4:2:0
Bit depth : 8 bits
Scan type : Progressive
Compression mode : Lossy
Bits/(Pixel*Frame) : 0.272
Stream size : 1.04 GiB (76%)
Writing library : XviD 1.2.1 (UTC 2008-12-04)
Audio
ID : 1
Format : AC-3
Format/Info : Audio Coding 3
Mode extension : CM (complete main)
Format settings, Endianness : Big
Codec ID : 2000
Duration : 1h 43mn
Bit rate mode : Constant
Bit rate : 448 Kbps
Channel(s) : 6 channels
Channel positions : Front: L C R, Side: L R, LFE
Sampling rate : 48.0 KHz
Compression mode : Lossy
Stream size : 333 MiB (24%)
Alignment : Split accross interleaves
Interleave, duration : 42 ms (1.00 video frame)
Interleave, preload duration : 500 ms

Скриншоты




Создавать темы 19-Ноя-2015 18:47

[Профиль]  [ЛС] 

Doc_093

Стаж: 6 лет 7 месяцев

Сообщений: 32

Симпатии: 3

Скачан: 46 раз
Всего проголосовало: 4

Создавать темы 21-Ноя-2015 17:22

[Профиль]  [ЛС] 

mars751

Стаж: 5 лет 4 месяца

Сообщений: 227

Симпатии: 113

ну че, как фильм? стоит качать?

Создавать темы 21-Ноя-2015 19:13

[Профиль]  [ЛС] 

hamilion

Стаж: 4 года 11 месяцев

Сообщений: 155

Симпатии: 14

5,1/10·IMDb
по рейтингу не посоветуешь

Создавать темы 21-Ноя-2015 20:42

[Профиль]  [ЛС] 
Показать сообщения:    
Ответить на тему

Текущее время: 22-Авг 08:29

Часовой пояс: UTC + 5



Вы не можете начинать темы
Вы не можете отвечать на сообщения
Вы не можете редактировать свои сообщения
Вы не можете удалять свои сообщения
Вы не можете голосовать в опросах
Вы не можете прикреплять файлы к сообщениям
Вы не можете скачивать файлы