Франкенштейн против Мумии / Frankenstein vs. The Mummy (Дэмиен Леоне / Damien Leone) [2015, США, Ужасы, HDRip] (DVO : Sunny-Films)

Ответить на тему
 

UZM ®

Стаж: 5 лет 2 месяца

Сообщений: 169

Симпатии: 189

Франкенштейн против Мумии / Frankenstein vs. The Mummy
Страна: США
Жанр: Ужасы
Год выпуска: 2015
Продолжительность: 01:54:22
Перевод: Любительский (двухголосый закадровый) Доп. инфо о переводе Sunny-Films
Cубтитры: нет
Режиссер: Дэмиен Леоне / Damien Leone
В ролях: Брэндон Деспейн, Бумер Тиббс, Майкл Хмель, Макс Ризер, Мартин Пфефферкорн, Рахул Рай, Роберт МакНотон, Шон Роджерс, Эштон Ли
Описание: Мумия проклятого фараона и реанимированный труп, терроризируют медицинский университет. Только египтолог и профессор — ненормальный доктор Франкенштейн, могут остановить этих существ, пока не стало слишком поздно.
Качество видео: HDRip
Формат видео: AVI
Видео: MPEG-4, Xvid 720x304 23.976fps 1536kbps
Аудио: Dolby AC3 48,0Hz stereo 160kbps

MediaInfo

General
Complete name : D:\Кино\Frankenshtein.protiv.Mummii.2015.L2.HDRip.1400Mb.avi
Format : AVI
Format/Info : Audio Video Interleave
File size : 1.36 GiB
Duration : 1h 54mn
Overall bit rate : 1 706 Kbps
Writing application : VirtualDubMod 1.5.10.2 (build 2540/release)
Writing library : VirtualDubMod build 2540/release
Video
ID : 0
Format : MPEG-4 Visual
Format profile : Advanced [email protected]
Format settings, BVOP : 2
Format settings, QPel : No
Format settings, GMC : No warppoints
Format settings, Matrix : Default (MPEG)
Codec ID : XVID
Codec ID/Hint : XviD
Duration : 1h 54mn
Bit rate : 1 536 Kbps
Width : 720 pixels
Height : 304 pixels
Display aspect ratio : 2.35:1
Frame rate : 23.976 fps
Color space : YUV
Chroma subsampling : 4:2:0
Bit depth : 8 bits
Scan type : Progressive
Compression mode : Lossy
Bits/(Pixel*Frame) : 0.293
Stream size : 1.23 GiB (90%)
Writing library : XviD 1.2.1 (UTC 2008-12-04)
Audio
ID : 1
Format : AC-3
Format/Info : Audio Coding 3
Mode extension : CM (complete main)
Format settings, Endianness : Big
Codec ID : 2000
Duration : 1h 54mn
Bit rate mode : Constant
Bit rate : 160 Kbps
Channel(s) : 2 channels
Channel positions : Front: L R
Sampling rate : 48.0 KHz
Compression mode : Lossy
Stream size : 131 MiB (9%)
Alignment : Split accross interleaves
Interleave, duration : 42 ms (1.00 video frame)
Interleave, preload duration : 500 ms

Скриншот c названием фильма

Скриншоты

,
,
,

Создавать темы 19-Ноя-2015 22:01

[Профиль]  [ЛС] 

mars751

Стаж: 5 лет 4 месяца

Сообщений: 227

Симпатии: 113

Ну че скажите про фильм? отпишитесь кто посмотрел

Создавать темы 25-Ноя-2015 23:25

[Профиль]  [ЛС] 

Mr.HuseyiN

Стаж: 4 года

Сообщений: 62

Симпатии: 8

960132Ну че скажите про фильм? отпишитесь кто посмотрел
Смотрел ! ну как детский комикс ! Мумия и Франки это уже прикол

Создавать темы 27-Ноя-2015 07:32

[Профиль]  [ЛС] 

mars751

Стаж: 5 лет 4 месяца

Сообщений: 227

Симпатии: 113

Mr.HuseyiN, ну стоит посмотреть?

Создавать темы 27-Ноя-2015 09:30

[Профиль]  [ЛС] 
Показать сообщения:    
Ответить на тему

Текущее время: 21-Авг 15:27

Часовой пояс: UTC + 5



Вы не можете начинать темы
Вы не можете отвечать на сообщения
Вы не можете редактировать свои сообщения
Вы не можете удалять свои сообщения
Вы не можете голосовать в опросах
Вы не можете прикреплять файлы к сообщениям
Вы не можете скачивать файлы