Бегущий в лабиринте: Испытание огнём / Maze Runner: The Scorch Trials (Уэс Болл) [2015 г., фантастика, боевик, триллер, HDRip] [Лицензия / iTunes]

Ответить на тему
 

ruhal ®

Стаж: 2 года 7 месяцев

Сообщений: 1181

Симпатии: 1836

-Бегущий в лабиринте: Испытание огнём / Maze Runner: The Scorch Trials- Страна: США
Жанр: фантастика, боевик, триллер
Год выпуска: 2015
Продолжительность: 02:03:20-Перевод: Профессиональный (дублированный) [iTunes]
Cубтитры: нет-Режиссер: Уэс Болл-В ролях: Дилан О’Брайен, Ки Хонг Ли, Кая Скоделарио, Томас Сэнгстер, Декстер Дарден,Алекс Дж. Флорес, Джейкоб Лофленд, Роза Салазар, Джанкарло Эспозито, Патришия Кларксон-Описание: Лабиринт пройден, но Томасу, Терезе, Минхо и прочим глэйдерам не приходится расслабляться.
Таинственное руководство ПОРОКА — секретной организации, устроившей гонки на выживание — назначает ребятам новые,смертельно опасные испытания. На сей раз их ждет переход по раскаленной пустыне и встреча с жертвами неизлечимой болезни, которые отличаются буйным нравом и непредсказуемым поведением.-Качество видео: HDRip
Формат видео: AVI
Видео: Xvid 720x304 23.976fps 1770kbps
Аудио: Dolby AC3 48000Hz 6ch 448kbps
-

MediaInfo

General
Complete name : E:\Films\Begus41y.v.Laber1nte.2.2015.D.HDRip.2100Mb.avi
Format : AVI
Format/Info : Audio Video Interleave
Format profile : OpenDML
File size : 2.05 GiB
Duration : 2h 11mn
Overall bit rate : 2 231 Kbps
Writing application : VirtualDubMod 1.5.10.2 (build 2540/release)
Writing library : VirtualDubMod build 2540/release
Video
ID : 0
Format : MPEG-4 Visual
Format profile : Advanced [email protected]
Format settings, BVOP : 2
Format settings, QPel : No
Format settings, GMC : No warppoints
Format settings, Matrix : Default (MPEG)
Codec ID : XVID
Codec ID/Hint : XviD
Duration : 2h 11mn
Bit rate : 1 771 Kbps
Width : 720 pixels
Height : 304 pixels
Display aspect ratio : 2.35:1
Frame rate : 23.976 fps
Color space : YUV
Chroma subsampling : 4:2:0
Bit depth : 8 bits
Scan type : Progressive
Compression mode : Lossy
Bits/(Pixel*Frame) : 0.337
Stream size : 1.63 GiB (79%)
Writing library : XviD 1.2.1 (UTC 2008-12-04)
Audio
ID : 1
Format : AC-3
Format/Info : Audio Coding 3
Mode extension : CM (complete main)
Format settings, Endianness : Big
Codec ID : 2000
Duration : 2h 11mn
Bit rate mode : Constant
Bit rate : 448 Kbps
Channel(s) : 6 channels
Channel positions : Front: L C R, Side: L R, LFE
Sampling rate : 48.0 KHz
Compression mode : Lossy
Stream size : 422 MiB (20%)
Alignment : Split accross interleaves
Interleave, duration : 42 ms (1.00 video frame)
Interleave, preload duration : 500 ms

Скриншот c названием фильма

Скриншоты






Последний раз редактировалось: ruhal (2016-05-12 19:07), всего редактировалось 5 раз(а)

Создавать темы 20-Ноя-2015 10:28

[Профиль]  [ЛС] 

ruhal ®

Стаж: 2 года 7 месяцев

Сообщений: 1181

Симпатии: 1836

Прошу модеров прилепить

Создавать темы 20-Ноя-2015 10:29

[Профиль]  [ЛС] 

ulkiora5

Стаж: 4 года 5 месяцев

Сообщений: 53

Симпатии: 25

честно сказать уже задрали эти все молодёжные мелодрамы/драмы/приключения за последнее время не вышло не одного стоящего фильма, надежда только на новые голодные игры, зы то уже ходил в кино на него, как вам?

Создавать темы 20-Ноя-2015 10:42

[Профиль]  [ЛС] 

ruhal ®

Стаж: 2 года 7 месяцев

Сообщений: 1181

Симпатии: 1836

959092честно сказать уже задрали эти все молодёжные мелодрамы/драмы/приключения за последнее время не вышло не одного стоящего фильма, надежда только на новые голодные игры, зы то уже ходил в кино на него, как вам?
Лучше самому посмотреть, а то как говориться - сколько людей, столько и мнений

Создавать темы 20-Ноя-2015 11:00

[Профиль]  [ЛС] 

axeman

Стаж: 5 лет

Сообщений: 380

Симпатии: 50

скучный фильм, где загадки,выживания, первый фильм был лучше, этот превратился в триллер,боевик

Создавать темы 23-Ноя-2015 13:56

[Профиль]  [ЛС] 

ulkiora5

Стаж: 4 года 5 месяцев

Сообщений: 53

Симпатии: 25

Сходил все таки в минувшую субботу на Голодные Игры, все таки есть ещё порох, в конце сцена с Лютиком прям за душу

Создавать темы 24-Ноя-2015 01:37

[Профиль]  [ЛС] 

Страх

Стаж: 4 года 1 месяц

Сообщений: 1131

Симпатии: 448

ulkiora5, Про голодные игры - самый не удачный фильм этого года , я первый день премъеры утром ходил в кинотеатр в рояле смотрел. аж в конце такая хепиэнд концовка что аш смешно стало.

Создавать темы 07-Дек-2015 13:27

[Профиль]  [ЛС] 

iceblade

Стаж: 5 лет

Сообщений: 38

Симпатии: 2

Не думаю что голодные игры будут нормальными

Создавать темы 11-Дек-2015 20:48

[Профиль]  [ЛС] 

Azizsher

Стаж: 3 года 9 месяцев

Сообщений: 9

Симпатии: 1

kinoga vawiiiiii gap yoooo

Создавать темы 10-Янв-2016 14:31

[Профиль]  [ЛС] 

ulkiora5

Стаж: 4 года 5 месяцев

Сообщений: 53

Симпатии: 25

эээ бор гап, мусир бу кино

Создавать темы 11-Янв-2016 14:54

[Профиль]  [ЛС] 

Gagi

Стаж: 4 года 8 месяцев

Сообщений: 18

Симпатии: 2

-1

_________________
Подпись отключена за нарушение правил форума

Создавать темы 06-Фев-2016 20:51

[Профиль]  [ЛС] 

Mansuro

Стаж: 7 лет 11 месяцев

Сообщений: 7

Симпатии: 1

есть 3 й часть этот кино не подскажите?

Комментарий от ruhal


нету, еще не вышла

Создавать темы 26-Мар-2016 16:49

[Профиль]  [ЛС] 
Показать сообщения:    
Ответить на тему

Текущее время: 19-Ноя 10:04

Часовой пояс: UTC + 5



Вы не можете начинать темы
Вы не можете отвечать на сообщения
Вы не можете редактировать свои сообщения
Вы не можете удалять свои сообщения
Вы не можете голосовать в опросах
Вы не можете прикреплять файлы к сообщениям
Вы не можете скачивать файлы