Грустное кино / Sad Movie (Квон Чжон Кван / Kwon Jong-kwan) [2005, Южная Корея, Драма, романтика, DVDRip] VO (D.I.M)

Ответить на тему
 

Jasur S ®

Стаж: 4 года 4 месяца

Сообщений: 110

Симпатии: 111

-Грустное кино / Sad Movie
-
Страна: Южная Корея
Жанр: Драма, романтика
Год выпуска: 2005
Продолжительность: 01:47:57-Перевод: Одноголосый закадровый Доп. инфо о переводе D.I.M
Cубтитры: нет
Оригинальная аудиодорожка: корейский
Режиссер: Квон Чжон Кван / Kwon Jong-kwan
В ролях: Со Чжон Лим, У Сон Чон, Чон А Ём, Син Мин А
-
Описание: Четыре истории в одном фильме.
Первая – это история любви пожарника и девушки, которая работает сурдопереводчиком на одном из телеканалов.
Вторая история – это история любви безработного парня и девушки, которая работает продавцом в супермаркете.
Третья история – история любви парня художника и немой девушки, которая работает в парке аттракционов в костюме.
Четвертая – это история взаимоотношений между маленьким мальчиком и его больной матерью.
-
Качество видео: DVDRip
Формат видео: AVI
Видео: Xvid 704x320 23.976fps 1359kbps [V: mpeg4 advanced simple profile, yuv420p, 704x320, 1359 kb/s]
Аудио: Dolby AC3 48000Hz 6ch 448kbps [A: ac3, 48000 Hz, 5.1, 448 kb/s]

MediaInfo

General
Complete name : E:\Movies\Sad Movie\Grustnoe.kino.2005.DVDRip.avi
Format : AVI
Format/Info : Audio Video Interleave
File size : 1.37 GiB
Duration : 1h 47mn
Overall bit rate : 1 817 Kbps
Writing application : VirtualDubMod 1.5.10.2 (build 2540/release)
Writing library : VirtualDubMod build 2540/release
Video
ID : 0
Format : MPEG-4 Visual
Format profile : Advanced [email protected]
Format settings, BVOP : 1
Format settings, QPel : No
Format settings, GMC : No warppoints
Format settings, Matrix : Default (MPEG)
Codec ID : XVID
Codec ID/Hint : XviD
Duration : 1h 47mn
Bit rate : 1 360 Kbps
Width : 704 pixels
Height : 320 pixels
Display aspect ratio : 2.2:1
Frame rate : 23.976 fps
Color space : YUV
Chroma subsampling : 4:2:0
Bit depth : 8 bits
Scan type : Progressive
Compression mode : Lossy
Bits/(Pixel*Frame) : 0.252
Stream size : 1.03 GiB (75%)
Writing library : XviD 1.2.1 (UTC 2008-12-04)
Audio
ID : 1
Format : AC-3
Format/Info : Audio Coding 3
Mode extension : CM (complete main)
Format settings, Endianness : Big
Codec ID : 2000
Duration : 1h 47mn
Bit rate mode : Constant
Bit rate : 448 Kbps
Channel(s) : 6 channels
Channel positions : Front: L C R, Side: L R, LFE
Sampling rate : 48.0 KHz
Compression mode : Lossy
Stream size : 346 MiB (25%)
Alignment : Split accross interleaves
Interleave, duration : 42 ms (1.00 video frame)
Interleave, preload duration : 500 ms

Скриншоты









Создавать темы 20-Ноя-2015 16:39

[Профиль]  [ЛС] 

Jasur S ®

Стаж: 4 года 4 месяца

Сообщений: 110

Симпатии: 111

Оформил чуть раньше, завтра времени нету) Могу лишь сказать, что подбирать скрины было трудновато. Грустно..( Особенно когда маленький мальчик говорит отцу не плакать когда мама в печальном положении...((

Всем приятного просмотра :)

Создавать темы 20-Ноя-2015 16:47

[Профиль]  [ЛС] 
Показать сообщения:    
Ответить на тему

Текущее время: 21-Авг 02:17

Часовой пояс: UTC + 5



Вы не можете начинать темы
Вы не можете отвечать на сообщения
Вы не можете редактировать свои сообщения
Вы не можете удалять свои сообщения
Вы не можете голосовать в опросах
Вы не можете прикреплять файлы к сообщениям
Вы не можете скачивать файлы