Бегущий в лабиринте: Испытание огнём / Maze Runner: The Scorch Trials (Уэс Болл) [2015 г., фантастика, боевик, триллер, BDRip [H.264/1080p]] [Лицензия]

Ответить на тему
 

ElATE ®

Стаж: 2 года 1 месяц

Сообщений: 19

Симпатии: 39

Бегущий в лабиринте: Испытание огнём / Maze Runner: The Scorch Trials (2015) BDRip [H.264/1080p]«Лабиринт был всего лишь началом»- Производство: США, TSG Entertainment, Temple Hill Entertainment, Gotham Group
Год: 2015
Жанр: Фантастика, Боевик, Триллер
Продолжительность: 02:11:42
Перевод: Дублированный [Лицензия]-Режиссер: Уэс Болл
Продюсер: Марти Бауэн, Вик Годфри, Эллен Голдсмит-Вейн
Актеры: Дилан О’Брайен, Ки Хонг Ли, Кая Скоделарио, Томас Сэнгстер, Декстер Дарден, Алекс Дж. Флорес, Джейкоб Лофленд, Роза Салазар, Джанкарло Эспозито, Патришия Кларксон-Описание:
Лабиринт пройден, но Томасу, Терезе, Минхо и прочим глэйдерам не приходится расслабляться. Таинственное руководство ПОРОКА — секретной организации, устроившей гонки на выживание — назначает ребятам новые, смертельно опасные испытания. На сей раз их ждет переход по раскаленной пустыне и встреча с жертвами неизлечимой болезни, которые отличаются буйным нравом и непредсказуемым поведением.- -Рейтинг MPAA: PG-13
Возраст: 16+-Дата мировой премьеры: 7 сентября 2015
Дата премьеры в России: 17 сентября 2015, «Двадцатый Век Фокс СНГ»-Качество видео: BDRip
Контейнер: MKV
Видео: AVC/H.264, 1920x800 (2.40:1), 9185 kbps, 23.976 fps
Аудио »1: 48 kHz, AC3 Dolby Digital, 3/2 (L,C,R,l,r) + LFE ch, ~448 kbps (Русский/Лицензия)
Аудио »2: 48 kHz, DTS Dolby Digital, 3/2 (L,C,R,l,r) + LFE ch, ~1536 kbps (Английский/Оригинал)
Вид субтитров: Отсутствуют

MediaInfo

Общее
Уникальный идентификатор                 : 226772765661229641467758522258318313149 (0xAA9AD8932F1022838A0C8F43B85646BD)
Полное имя                               : D:\Релизы\Begushchiy.v.labirinte.Ispyitanie.ognem.2015.BDRip.[1080p].nnm-club.mkv
Формат                                   : Matroska
Версия формата                           : Version 4 / Version 2
Размер файла                             : 10,3 Гбайт
Продолжительность                        : 2 ч. 11 м.
Общий поток                              : 11,1 Мбит/сек
Дата кодирования                         : UTC 2015-11-19 21:44:55
Программа кодирования                    : mkvmerge v8.3.0 ('Over the Horizon') 32bit
Библиотека кодирования                   : libebml v1.3.1 + libmatroska v1.4.2
DURATION                                 : 02:11:42.902000000
NUMBER_OF_FRAMES                         : 740897
NUMBER_OF_BYTES                          : 1490684764
_STATISTICS_WRITING_APP                  : mkvmerge v8.3.0 ('Over the Horizon') 32bit
_STATISTICS_WRITING_DATE_UTC             : 2015-11-19 21:44:55
_STATISTICS_TAGS                         : BPS DURATION NUMBER_OF_FRAMES NUMBER_OF_BYTES
Видео
Идентификатор                            : 1
Формат                                   : AVC
Формат/Информация                        : Advanced Video Codec
Профиль формата                          : [email protected]
Параметр CABAC формата                   : Да
Параметр ReFrames формата                : 5 кадров
Идентификатор кодека                     : V_MPEG4/ISO/AVC
Продолжительность                        : 2 ч. 11 м.
Битрейт                                  : 9185 Кбит/сек
Ширина                                   : 1920 пикселей
Высота                                   : 800 пикселей
Соотношение сторон                       : 2,40:1
Режим частоты кадров                     : Постоянный
Частота кадров                           : 23,976 кадра/сек
Цветовое пространство                    : YUV
Субдискретизация насыщенности            : 4:2:0
Битовая глубина                          : 8 бит
Тип развёртки                            : Прогрессивная
Бит/(Пиксели*Кадры)                      : 0.249
Размер потока                            : 8,25 Гбайт (80%)
Библиотека кодирования                   : x264 core 148 r2638 7599210
Настройки программы                      : cabac=1 / ref=5 / deblock=1:0:0 / analyse=0x3:0x133 / me=umh / subme=7 / psy=1 / psy_rd=1.00:0.00 / mixed_ref=1 / me_range=16 / chroma_me=1 / trellis=1 / 8x8dct=1 / cqm=0 / deadzone=21,11 / fast_pskip=0 / chroma_qp_offset=-2 / threads=12 / lookahead_threads=2 / sliced_threads=0 / nr=0 / decimate=1 / interlaced=0 / bluray_compat=0 / constrained_intra=0 / bframes=3 / b_pyramid=2 / b_adapt=1 / b_bias=0 / direct=1 / weightb=1 / open_gop=0 / weightp=2 / keyint=250 / keyint_min=23 / scenecut=40 / intra_refresh=0 / rc_lookahead=40 / rc=2pass / mbtree=1 / bitrate=9185 / ratetol=1.0 / qcomp=0.60 / qpmin=0 / qpmax=69 / qpstep=4 / cplxblur=20.0 / qblur=0.5 / ip_ratio=1.40 / aq=1:1.00
Язык                                     : English
Default                                  : Да
Forced                                   : Нет
DURATION                                 : 02:11:42.825000000
NUMBER_OF_FRAMES                         : 189478
NUMBER_OF_BYTES                          : 9070517848
_STATISTICS_WRITING_APP                  : mkvmerge v8.3.0 ('Over the Horizon') 32bit
_STATISTICS_WRITING_DATE_UTC             : 2015-11-19 21:44:55
_STATISTICS_TAGS                         : BPS DURATION NUMBER_OF_FRAMES NUMBER_OF_BYTES
Аудио #1
Идентификатор                            : 2
Формат                                   : AC-3
Формат/Информация                        : Audio Coding 3
Расширение режима                        : CM (complete main)
Параметр Endianness формата              : Big
Идентификатор кодека                     : A_AC3
Продолжительность                        : 2 ч. 11 м.
Вид битрейта                             : Постоянный
Битрейт                                  : 448 Кбит/сек
Каналы                                   : 6 каналов
Расположение каналов                     : Front: L C R, Side: L R, LFE
Частота                                  : 48,0 КГц
Метод сжатия                             : С потерями
Размер потока                            : 422 Мбайт (4%)
Язык                                     : Russian
Default                                  : Да
Forced                                   : Нет
Аудио #2
Идентификатор                            : 3
Формат                                   : DTS
Формат/Информация                        : Digital Theater Systems
Профиль формата                          : ES
Режим                                    : 16
Параметр Endianness формата              : Big
Идентификатор кодека                     : A_DTS
Продолжительность                        : 2 ч. 11 м.
Вид битрейта                             : Постоянный
Битрейт                                  : 1509 Кбит/сек
Каналы                                   : 6 каналов
Расположение каналов                     : Front: L C R, Side: L R, LFE
Частота                                  : 48,0 КГц
Битовая глубина                          : 24 бит
Метод сжатия                             : С потерями
Размер потока                            : 1,39 Гбайт (14%)
Язык                                     : English
Default                                  : Нет
Forced                                   : Нет
Меню
00:00:00.000                             : en:00:00:00.000
00:04:05.120                             : en:00:04:05.120
00:05:59.818                             : en:00:05:59.818
00:09:08.798                             : en:00:09:08.798
00:11:55.840                             : en:00:11:55.840
00:17:32.677                             : en:00:17:32.677
00:23:21.191                             : en:00:23:21.191
00:27:36.029                             : en:00:27:36.029
00:33:10.238                             : en:00:33:10.238
00:37:06.683                             : en:00:37:06.683
00:41:30.988                             : en:00:41:30.988
00:45:47.370                             : en:00:45:47.370
00:51:57.781                             : en:00:51:57.781
00:56:01.775                             : en:00:56:01.775
01:00:56.319                             : en:01:00:56.319
01:03:50.535                             : en:01:03:50.535
01:07:29.254                             : en:01:07:29.254
01:11:19.192                             : en:01:11:19.192
01:15:32.820                             : en:01:15:32.820
01:20:15.060                             : en:01:20:15.060
01:27:47.471                             : en:01:27:47.471
01:30:17.287                             : en:01:30:17.287
01:34:04.013                             : en:01:34:04.013
01:38:29.904                             : en:01:38:29.904
01:40:52.546                             : en:01:40:52.546
01:44:13.122                             : en:01:44:13.122
01:51:51.872                             : en:01:51:51.872
01:56:51.213                             : en:01:56:51.213
02:01:02.714                             : en:02:01:02.714
02:04:05.146                             : en:02:04:05.146

Скриншоты




Создавать темы 20-Ноя-2015 18:33

[Профиль]  [ЛС] 
Показать сообщения:    
Ответить на тему

Текущее время: 18-Авг 04:32

Часовой пояс: UTC + 5



Вы не можете начинать темы
Вы не можете отвечать на сообщения
Вы не можете редактировать свои сообщения
Вы не можете удалять свои сообщения
Вы не можете голосовать в опросах
Вы не можете прикреплять файлы к сообщениям
Вы не можете скачивать файлы