Сапожник / The Cobbler (Том МакКарти) [2014, США, фэнтези, драма, комедия, HDRip] (Dub)

Ответить на тему
 

Phantom888 ®

Стаж: 3 года 10 месяцев

Сообщений: 13

Симпатии: 24

Сапожник / The Cobbler
Страна: США
Жанр: фэнтези, драма, комедия
Год выпуска: 2014
Продолжительность: 01:38:02
Перевод: Профессиональный (дублированный)
Cубтитры: нет
Режиссер: Том МакКарти
В ролях: Адам Сэндлер, Дэн Стивенс, Стив Бушеми, Дастин Хоффман, Эллен Баркин, Елена Кампурис, Гленн Флешлер, Метод Мэн, Мелони Диас, Джаред Сэндлер
Описание: Макс Симкин занимается ремонтом обуви в Нью-Йорке. Он работает в магазине, который передавался его семьей из поколения в поколение. Однажды, разочарованный своей скучной жизнью, Макс натыкается на волшебную реликвию, которая позволяет ему увидеть мир по-новому.
Качество видео: HDRip
Формат видео: AVI
Видео: XviD, 1734 Кбит/с, 720x384
Аудио: AC3, 6 ch, 384 Кбит/с

MediaInfo

General
Complete name : The Cobbler.HDRip.2014.D.1 46gb.avi
Format : AVI
Format/Info : Audio Video Interleave
File size : 1.46 GiB
Duration : 1h 38mn
Overall bit rate : 2 127 Kbps
Writing application : VirtualDubMod 1.5.10.2 (build 2540/release)
Writing library : VirtualDubMod build 2540/release
Video
ID : 0
Format : MPEG-4 Visual
Format profile : Advanced [email protected]
Format settings, BVOP : 2
Format settings, QPel : No
Format settings, GMC : No warppoints
Format settings, Matrix : Default (MPEG)
Muxing mode : Packed bitstream
Codec ID : XVID
Codec ID/Hint : XviD
Duration : 1h 38mn
Bit rate : 1 734 Kbps
Width : 720 pixels
Height : 384 pixels
Display aspect ratio : 1.85:1
Frame rate : 23.976 fps
Color space : YUV
Chroma subsampling : 4:2:0
Bit depth : 8 bits
Scan type : Progressive
Compression mode : Lossy
Bits/(Pixel*Frame) : 0.262
Stream size : 1.19 GiB (82%)
Writing library : XviD 73
Audio
ID : 1
Format : AC-3
Format/Info : Audio Coding 3
Mode extension : CM (complete main)
Format settings, Endianness : Big
Codec ID : 2000
Duration : 1h 38mn
Bit rate mode : Constant
Bit rate : 384 Kbps
Channel count : 6 channels
Channel positions : Front: L C R, Side: L R, LFE
Sampling rate : 48.0 KHz
Bit depth : 16 bits
Compression mode : Lossy
Stream size : 269 MiB (18%)
Alignment : Split accross interleaves
Interleave, duration : 42 ms (1.00 video frame)
Interleave, preload duration : 500 ms

Скриншот c названием фильма

Скриншоты

Создавать темы 20-Ноя-2015 19:10

[Профиль]  [ЛС] 

Саид

Стаж: 6 лет 6 месяцев

Сообщений: 7

Сиды!!! -Дайте и мне скачать пожалуйста!!!
-Уберите ограничение скорости!
Или кто-нибудь айпишник для скачивания скиньте...

Создавать темы 09-Янв-2016 21:49

[Профиль]  [ЛС] 
Показать сообщения:    
Ответить на тему

Текущее время: 22-Авг 06:46

Часовой пояс: UTC + 5



Вы не можете начинать темы
Вы не можете отвечать на сообщения
Вы не можете редактировать свои сообщения
Вы не можете удалять свои сообщения
Вы не можете голосовать в опросах
Вы не можете прикреплять файлы к сообщениям
Вы не можете скачивать файлы