Фантастическая четверка / Fantastic Four (Джошуа Транк) [2015, США, Фантастика, боевик, приключения, BDRip] (Dub : iTunes) (Sub Eng)

Ответить на тему
 

ziyod ®

Стаж: 7 лет 6 месяцев

Сообщений: 367

Симпатии: 60

Фантастическая четверка / Fantastic Four
Страна: США
Жанр: Фантастика, боевик, приключения
Год выпуска: 2015
Продолжительность: 01:39:58
Перевод: Профессиональный (дублированный) iTunes
Cубтитры: английские
Режиссер: Джошуа Транк
В ролях: Майлз Теллер, Майкл Б. Джордан, Кейт Мара, Джейми Белл, Тоби Кеббелл, Рег Э. Кэти, Тим Блэйк Нельсон, Джошуа Монтес, Дэн Кастелланета, Оуэн Джадж
Описание: История о четырех молодых астронавтах, которые отважились на авантюрное путешествие в параллельное измерение для исследования аномальной волны космической энергии. Вернувшись из путешествия, они обнаружили у себя суперспособности, которые навсегда изменили их жизни…
Качество видео: BDRip
Формат видео: MKV
Видео: MPEG-4 AVC, 5826 Кбит/с, 1280х536
Аудио: AC3, 6 ch, 384 Кбит/с
Формат субтитров: softsub (SRT)

MediaInfo

General
Unique ID : 193236648875356131118484872389732014434 (0x9160065C0F1B692FB1FB1BC987571962)
Complete name : Fantastic.Four.2015.D.BDRip.720p.mkv
Format : Matroska
Format version : Version 4 / Version 2
File size : 4.45 GiB
Duration : 1h 39mn
Overall bit rate : 6 366 Kbps
Encoded date : UTC 2015-11-21 08:12:19
Writing application : mkvmerge v7.6.0 ('Garden of Dreams') 32bit built on Feb 8 2015 12:51:39
Writing library : libebml v1.3.1 + libmatroska v1.4.2
DURATION : 01:32:21.995000000
NUMBER_OF_FRAMES : 1289
NUMBER_OF_BYTES : 34786
_STATISTICS_WRITING_APP : mkvmerge v7.6.0 ('Garden of Dreams') 32bit built on Feb 8 2015 12:51:39
_STATISTICS_WRITING_DATE_UT : 2015-11-21 08:12:19
_STATISTICS_TAGS : BPS DURATION NUMBER_OF_FRAMES NUMBER_OF_BYTES
Video
ID : 1
Format : AVC
Format/Info : Advanced Video Codec
Format profile : [email protected]
Format settings, CABAC : Yes
Format settings, ReFrames : 12 frames
Codec ID : V_MPEG4/ISO/AVC
Duration : 1h 39mn
Bit rate : 5 856 Kbps
Width : 1 280 pixels
Height : 536 pixels
Display aspect ratio : 2.40:1
Frame rate mode : Constant
Frame rate : 23.976 fps
Color space : YUV
Chroma subsampling : 4:2:0
Bit depth : 8 bits
Scan type : Progressive
Bits/(Pixel*Frame) : 0.356
Stream size : 4.09 GiB (92%)
Writing library : x264 core 148 r2579kMod 73ae2d1
Encoding settings : cabac=1 / ref=12 / deblock=1:-3:-3 / analyse=0x3:0x133 / me=umh / subme=10 / psy=1 / fade_compensate=0.00 / psy_rd=1.05:0.00 / mixed_ref=1 / me_range=64 / chroma_me=1 / trellis=2 / 8x8dct=1 / cqm=0 / deadzone=21,11 / fast_pskip=0 / chroma_qp_offset=-2 / threads=12 / lookahead_threads=2 / sliced_threads=0 / nr=0 / decimate=0 / interlaced=0 / bluray_compat=0 / constrained_intra=0 / fgo=0 / bframes=9 / b_pyramid=2 / b_adapt=2 / b_bias=0 / direct=3 / weightb=1 / open_gop=0 / weightp=2 / keyint=250 / keyint_min=23 / scenecut=40 / intra_refresh=0 / rc_lookahead=40 / rc=crf / mbtree=0 / crf=16.0000 / qcomp=0.75 / qpmin=0 / qpmax=69 / qpstep=4 / vbv_maxrate=50000 / vbv_bufsize=62500 / crf_max=0.0 / nal_hrd=none / filler=0 / ip_ratio=1.10 / pb_ratio=1.10 / aq=3:0.70 / zones=612,877,crf=11/9476,9496,crf=11/9527,9551,crf=11/9582,9613,crf=11/32847,37902,crf=11/56868,59601,crf=11/57043,57103,crf=11/64590,64626,crf=11/64713,64749,crf=11/64931,65013,crf=11/71405,71536,crf=11/71578,71795,crf=11/73344,73468,crf=11/73624,73637,crf=11/74149,74194,crf=11/81127,81234,crf=11/85757,85770,crf=11/97930,98151,crf=11/105735,105805,crf=11/114285,114526,crf=11/116651,117048,crf=11/117971,118118,crf=11/118412,118459,crf=11/119774,119830,crf=11/120649,120727,crf=11/123481,123564,crf=11/127248,127453,crf=11/127803,127850,crf=11/127945,127982,crf=11/128645,128753,crf=11
Language : English
Default : Yes
Forced : No
Color range : Limited
Color primaries : BT.709
Transfer characteristics : BT.709
Matrix coefficients : BT.709
DURATION : 01:39:58.493000000
NUMBER_OF_FRAMES : 143820
NUMBER_OF_BYTES : 4484765152
_STATISTICS_WRITING_APP : mkvmerge v7.6.0 ('Garden of Dreams') 32bit built on Feb 8 2015 12:51:39
_STATISTICS_WRITING_DATE_UT : 2015-11-21 08:12:19
_STATISTICS_TAGS : BPS DURATION NUMBER_OF_FRAMES NUMBER_OF_BYTES
Audio
ID : 2
Format : AC-3
Format/Info : Audio Coding 3
Mode extension : CM (complete main)
Format settings, Endianness : Big
Codec ID : A_AC3
Duration : 1h 39mn
Bit rate mode : Constant
Bit rate : 384 Kbps
Channel(s) : 6 channels
Channel positions : Front: L C R, Side: L R, LFE
Sampling rate : 48.0 KHz
Compression mode : Lossy
Stream size : 275 MiB (6%)
Language : Russian
Default : Yes
Forced : No
Text #1
ID : 3
Format : UTF-8
Codec ID : S_TEXT/UTF8
Codec ID/Info : UTF-8 Plain Text
Title : forced
Language : English
Default : No
Forced : No
Text #2
ID : 4
Format : UTF-8
Codec ID : S_TEXT/UTF8
Codec ID/Info : UTF-8 Plain Text
Title : full .srt
Language : English
Default : No
Forced : No
Menu
00:00:00.000 : en:00:00:00.000
00:02:30.025 : en:00:02:30.025
00:07:22.609 : en:00:07:22.609
00:11:00.159 : en:00:11:00.159
00:14:59.524 : en:00:14:59.524
00:17:57.785 : en:00:17:57.785
00:22:03.322 : en:00:22:03.322
00:24:44.483 : en:00:24:44.483
00:27:49.877 : en:00:27:49.877
00:30:19.776 : en:00:30:19.776
00:34:56.011 : en:00:34:56.011
00:38:16.377 : en:00:38:16.377
00:43:10.087 : en:00:43:10.087
00:48:16.060 : en:00:48:16.060
00:51:35.301 : en:00:51:35.301
00:54:27.055 : en:00:54:27.055
00:57:18.101 : en:00:57:18.101
01:00:27.833 : en:01:00:27.833
01:04:34.913 : en:01:04:34.913
01:08:04.497 : en:01:08:04.497
01:12:08.282 : en:01:12:08.282
01:15:09.964 : en:01:15:09.964
01:19:10.162 : en:01:19:10.162
01:22:16.515 : en:01:22:16.515
01:24:49.543 : en:01:24:49.543
01:27:01.341 : en:01:27:01.341
01:30:49.569 : en:01:30:49.569
01:33:00.450 : en:01:33:00.450

Скриншоты


Создавать темы 21-Ноя-2015 15:00

[Профиль]  [ЛС] 
Показать сообщения:    
Ответить на тему

Текущее время: 25-Сен 20:13

Часовой пояс: UTC + 5



Вы не можете начинать темы
Вы не можете отвечать на сообщения
Вы не можете редактировать свои сообщения
Вы не можете удалять свои сообщения
Вы не можете голосовать в опросах
Вы не можете прикреплять файлы к сообщениям
Вы не можете скачивать файлы