Фантастическая четверка (HD 1080p) / Fantastic Four (Джош Транк) [2015, Великобритания, Германия, Канада, США, Боевик, Приключения, Фантастика, BDRip] (Dub) (Sub Eng + Original Eng)

Ответить на тему
 

Next_1 ®

Стаж: 4 года

Сообщений: 32

Симпатии: 53

Фантастическая четверка (HD 1080p) / Fantastic Four
Страна: Великобритания, Германия, Канада, США
Жанр: Боевик, Приключения, Фантастика
Год выпуска: 2015
Продолжительность: 01:39:58
Перевод: Профессиональный (дублированный)
Cубтитры: английские
Оригинальная аудиодорожка: английский
Режиссер: Джош Транк
В ролях: Джейми Белл, Дэн Кастелланета, Кейт Мара, Майлз Теллер, Рег Э. Кэти, Тим Блейк Нельсон, Тоби Кеббелл, Майкл Б. Джордан, Джошуа Монтес, Оуэн Джадж
Описание: История о четырех молодых астронавтах, которые отважились на авантюрное путешествие в параллельное измерение для исследования аномальной волны космической энергии. Вернувшись из путешествия, они обнаружили у себя суперспособности, которые навсегда изменили их жизни…
Доп. информация: Бюджет: $120 000 000
Рейтинг КиноПоиск.Ru: 4.148 (21245)
Рейтинг IMDb: 4.2 (71078)
Бюджет: $120 000 000
Рейтинг КиноПоиск.Ru: 4.148 (21245)
Рейтинг IMDb: 4.2 (71078)
Качество видео: BDRip
Формат видео: MKV
Видео: Video: MPEG4 Video (H264) 1920x804 23.976fps
Аудио: Audio: Dolby AC3 48000Hz 6ch 384kbps [A: AC-3, 6 ch, 384 kbps (iTunes) [rus] (ac3, 48000 Hz, 5.1, 384 kb/s)]
Аудио 2: Audio: Dolby AC3 48000Hz 6ch 640kbps [A: AC-3, 6 ch, 640 kbps (Rus) - Чистый звук сборка 5.1 Wety [rus] (ac3, 48000 Hz, 5.1, 640 kb/s)]
Аудио 3: Audio: Dolby AC3 48000Hz 6ch 640kbps [A: AC-3, 6 ch, 640 kbps (Eng) [eng] (ac3, 48000 Hz, 5.1, 640 kb/s)]
Формат субтитров: softsub (SRT)
Доп. информация о субтитрах: Eng

MediaInfo

General
Unique ID : 215761945084008793243741014440655610066 (0xA2523D34FABF1CA0841E4375164260D2)
Complete name : E:\Торрент\Фильмы и видео\HD\Fantasticheskaya chetverka 2015 BDRip 1080p.mkv
Format : Matroska
Format version : Version 4 / Version 2
File size : 6.02 GiB
Duration : 1h 39mn
Overall bit rate : 8 625 Kbps
Movie name : Фантастическая четверка 2015 BDRip 1080p -=WALLEDOL=- | Release by Demon_Corp
Encoded date : UTC 2015-11-20 06:11:10
Writing application : mkvmerge v6.9.1 ('Blue Panther') 64bit built on Apr 18 2014 18:23:38
Writing library : libebml v1.3.0 + libmatroska v1.4.1
Attachements : cover.jpg
Video
ID : 1
Format : AVC
Format/Info : Advanced Video Codec
Format profile : [email protected]
Format settings, CABAC : Yes
Format settings, ReFrames : 5 frames
Codec ID : V_MPEG4/ISO/AVC
Duration : 1h 39mn
Bit rate : 6 965 Kbps
Width : 1 920 pixels
Height : 804 pixels
Display aspect ratio : 2.40:1
Frame rate mode : Constant
Frame rate : 23.976 fps
Color space : YUV
Chroma subsampling : 4:2:0
Bit depth : 8 bits
Scan type : Progressive
Bits/(Pixel*Frame) : 0.188
Stream size : 4.74 GiB (79%)
Title : Фантастическая четверка 2015 BDRip 1080p | Release by Demon_Corp
Writing library : x264 core 148 r2638 7599210
Encoding settings : cabac=1 / ref=5 / deblock=1:-3:-3 / analyse=0x3:0x133 / me=umh / subme=10 / psy=1 / psy_rd=1.00:0.15 / mixed_ref=1 / me_range=32 / chroma_me=1 / trellis=2 / 8x8dct=1 / cqm=0 / deadzone=21,11 / fast_pskip=0 / chroma_qp_offset=-3 / threads=6 / lookahead_threads=1 / sliced_threads=0 / nr=0 / decimate=1 / interlaced=0 / bluray_compat=0 / constrained_intra=0 / bframes=8 / b_pyramid=2 / b_adapt=2 / b_bias=0 / direct=3 / weightb=1 / open_gop=0 / weightp=2 / keyint=240 / keyint_min=23 / scenecut=40 / intra_refresh=0 / rc=2pass / mbtree=0 / bitrate=6965 / ratetol=1.0 / qcomp=0.60 / qpmin=0 / qpmax=69 / qpstep=4 / cplxblur=20.0 / qblur=0.5 / ip_ratio=1.40 / pb_ratio=1.30 / aq=1:0.70
Language : English
Default : No
Forced : No
Audio #1
ID : 2
Format : AC-3
Format/Info : Audio Coding 3
Mode extension : CM (complete main)
Format settings, Endianness : Big
Codec ID : A_AC3
Duration : 1h 39mn
Bit rate mode : Constant
Bit rate : 384 Kbps
Channel(s) : 6 channels
Channel positions : Front: L C R, Side: L R, LFE
Sampling rate : 48.0 KHz
Bit depth : 16 bits
Compression mode : Lossy
Stream size : 275 MiB (4%)
Title : AC-3, 6 ch, 384 kbps (iTunes)
Language : Russian
Default : No
Forced : No
Audio #2
ID : 3
Format : AC-3
Format/Info : Audio Coding 3
Mode extension : CM (complete main)
Format settings, Endianness : Big
Codec ID : A_AC3
Duration : 1h 39mn
Bit rate mode : Constant
Bit rate : 640 Kbps
Channel(s) : 6 channels
Channel positions : Front: L C R, Side: L R, LFE
Sampling rate : 48.0 KHz
Bit depth : 16 bits
Compression mode : Lossy
Stream size : 458 MiB (7%)
Title : AC-3, 6 ch, 640 kbps (Rus) - Чистый звук сборка 5.1 Wety
Language : Russian
Default : No
Forced : No
Audio #3
ID : 4
Format : AC-3
Format/Info : Audio Coding 3
Mode extension : CM (complete main)
Format settings, Endianness : Big
Codec ID : A_AC3
Duration : 1h 39mn
Bit rate mode : Constant
Bit rate : 640 Kbps
Channel(s) : 6 channels
Channel positions : Front: L C R, Side: L R, LFE
Sampling rate : 48.0 KHz
Bit depth : 16 bits
Compression mode : Lossy
Stream size : 458 MiB (7%)
Title : AC-3, 6 ch, 640 kbps (Eng)
Language : English
Default : No
Forced : No
Text
ID : 5
Format : UTF-8
Codec ID : S_TEXT/UTF8
Codec ID/Info : UTF-8 Plain Text
Title : Full
Language : English
Default : No
Forced : No
Menu
00:00:00.000 : en:00:00:00.000
00:02:30.025 : en:00:02:30.025
00:07:22.609 : en:00:07:22.609
00:11:00.159 : en:00:11:00.159
00:14:59.524 : en:00:14:59.524
00:17:57.785 : en:00:17:57.785
00:22:03.322 : en:00:22:03.322
00:24:44.483 : en:00:24:44.483
00:27:49.877 : en:00:27:49.877
00:30:19.776 : en:00:30:19.776
00:34:56.011 : en:00:34:56.011
00:38:16.377 : en:00:38:16.377
00:43:10.087 : en:00:43:10.087
00:48:16.060 : en:00:48:16.060
00:51:35.301 : en:00:51:35.301
00:54:27.055 : en:00:54:27.055
00:57:18.101 : en:00:57:18.101
01:00:27.833 : en:01:00:27.833
01:04:34.913 : en:01:04:34.913
01:08:04.497 : en:01:08:04.497
01:12:08.282 : en:01:12:08.282
01:15:09.964 : en:01:15:09.964
01:19:10.162 : en:01:19:10.162
01:22:16.515 : en:01:22:16.515
01:24:49.543 : en:01:24:49.543
01:27:01.341 : en:01:27:01.341
01:30:49.569 : en:01:30:49.569
01:33:00.450 : en:01:33:00.450

Скриншот c названием фильма

Скриншоты



Создавать темы 22-Ноя-2015 09:35

[Профиль]  [ЛС] 

Next_1 ®

Стаж: 4 года

Сообщений: 32

Симпатии: 53

Админы можно золото? 6Гб многовато

Создавать темы 22-Ноя-2015 09:51

[Профиль]  [ЛС] 

ulkiora5

Стаж: 4 года 4 месяца

Сообщений: 53

Симпатии: 25

Мне трейлер этого фильма понравился больше, каким то чудом уберегся от похода в кино на сей шедевр

Создавать темы 22-Ноя-2015 14:37

[Профиль]  [ЛС] 

ElATE

Стаж: 2 года 3 месяца

Сообщений: 19

Симпатии: 39

Next_1, https://tas-ix.net/viewforum.php?f=183 сюда нужно перенести.
Зачем релизеру золотая раздача?)
Ведь не вы скачиваете данный релиз)) По идее спрашивают скачивающие пользователи.))
З.ы: В разделе HD существует более объемные раздачи без монетки.

Создавать темы 22-Ноя-2015 18:36

[Профиль]  [ЛС] 

dadil

Стаж: 4 года 7 месяцев

Сообщений: 20

Симпатии: 4

Ребята помогите не могу докачать, остановилась на 94% и дальше не идет уже месяц прошел!

Создавать темы 26-Мар-2016 11:17

[Профиль]  [ЛС] 
Показать сообщения:    
Ответить на тему

Текущее время: 22-Окт 04:18

Часовой пояс: UTC + 5



Вы не можете начинать темы
Вы не можете отвечать на сообщения
Вы не можете редактировать свои сообщения
Вы не можете удалять свои сообщения
Вы не можете голосовать в опросах
Вы не можете прикреплять файлы к сообщениям
Вы не можете скачивать файлы