Сонная Лощина / Sleepy Hollow / Сезон: 3 / Серии: 1-18 из 18 (Лен Уайзман) [2015, фантастика, триллер, WEB-DLRip] MVO (NewStudio)

Ответить на тему
 

GRIMM ®

Стаж: 6 лет 10 месяцев

Сообщений: 811

Симпатии: 172

Сонная Лощина / Sleepy Hollow
Сезон 3 Серия 1-18
-Год выпуска: 2015
Страна: США
Жанр: фэнтези, триллер, драма, детектив, приключения
Продолжительность: ~ 00:43:00-Перевод: Профессиональный многоголосый закадровый NewStudio
Режиссёр: Лен Уайзман, Кен Олин, Эрнест Р. Дикерсон, Пол А. Эдвардс-В ролях: Том Мисон, Николь Бахари, Орландо Джонс, Катя Винтер, Николас Гонзалез, Линди Гринвуд, Д.Дж. Миффлин, Джани Уоллес, Ричард Цетрон, Мэри Остин и др.-Описание: Икабод Крэйн просыпается от предсмертной агонии, переместившись во времени на 250 лет вперед. Крэйн обнаруживает мир на грани разрушения и узнает, что только он является единственной надеждой человечества.-Качество: WEB-DLRip
Формат: AVI
Видео кодек: XviD
Аудио кодек: MP3
Видео: XviD, 720x400 (16:9), 23,976 fps, ~1350 kbps
Аудио #1: MP3, 48 kHz, 2 ch, 128 kbps, CBR - Rus
Аудио #2: MP3, 48 kHz, 2 ch, 128 kbps, CBR - Eng

MediaInfo

Общее
Полное имя : X:\ATorrent\Sleepy Hollow (Season 03) NewStudio\Sleepy.Hollow.s03e01.WEBDLRip.NewStudio.avi
Формат : AVI
Формат/Информация : Audio Video Interleave
Размер файла : 542 Мбайт
Продолжительность : 45 м.
Общий поток : 1651 Кбит/сек
Программа кодирования : VirtualDubMod 1.5.10.3 | www.virtualdub-fr.org || (build 2550/release)
Библиотека кодирования : VirtualDubMod build 2550/release
Видео
Идентификатор : 0
Формат : MPEG-4 Visual
Профиль формата : Advanced [email protected]
Параметр BVOP формата : 2
Параметр QPel формата : Нет
Параметр GMC формата : Без точки перехода
Параметр матрицы формата : Default (MPEG)
Идентификатор кодека : XVID
Идентификатор кодека/Подсказка : XviD
Продолжительность : 45 м.
Битрейт : 1381 Кбит/сек
Ширина : 720 пикселей
Высота : 400 пикселей
Соотношение сторон : 16:9
Частота кадров : 23,976 кадра/сек
Цветовое пространство : YUV
Субдискретизация насыщенности : 4:2:0
Битовая глубина : 8 бит
Тип развёртки : Прогрессивная
Метод сжатия : С потерями
Бит/(Пиксели*Кадры) : 0.200
Размер потока : 453 Мбайт (84%)
Библиотека кодирования : XviD 73
Аудио #1
Идентификатор : 1
Формат : MPEG Audio
Версия формата : Version 1
Профиль формата : Layer 3
Идентификатор кодека : 55
Идентификатор кодека/Подсказка : MP3
Продолжительность : 45 м.
Вид битрейта : Постоянный
Битрейт : 128 Кбит/сек
Каналы : 2 канала
Частота : 48,0 КГц
Метод сжатия : С потерями
Размер потока : 42,0 Мбайт (8%)
Выравнивание : Соединение по промежуткам
Продолжительность промежутка : 42 мс. (1,00 видеокадр)
Время предзагрузки промежутка : 504 мс.
Аудио #2
Идентификатор : 2
Формат : MPEG Audio
Версия формата : Version 1
Профиль формата : Layer 3
Режим : Joint stereo
Расширение режима : MS Stereo
Идентификатор кодека : 55
Идентификатор кодека/Подсказка : MP3
Продолжительность : 45 м.
Вид битрейта : Постоянный
Битрейт : 128 Кбит/сек
Каналы : 2 канала
Частота : 48,0 КГц
Метод сжатия : С потерями
Размер потока : 42,0 Мбайт (8%)
Выравнивание : Соединение по промежуткам
Продолжительность промежутка : 42 мс. (1,00 видеокадр)
Время предзагрузки промежутка : 504 мс.
Библиотека кодирования : LAME3.99.5ЄЄЄЄЄЄЄЄЄЄ

Скриншоты




Последний раз редактировалось: GRIMM (2016-04-14 23:09), всего редактировалось 10 раз(а)

Создавать темы 22-Ноя-2015 10:31

[Профиль]  [ЛС] 

GRIMM ®

Стаж: 6 лет 10 месяцев

Сообщений: 811

Симпатии: 172

Добавлено 8 серия

Создавать темы 22-Ноя-2015 10:31

[Профиль]  [ЛС] 

GRIMM ®

Стаж: 6 лет 10 месяцев

Сообщений: 811

Симпатии: 172

Добавил 9 серию

Создавать темы 08-Фев-2016 20:50

[Профиль]  [ЛС] 

GRIMM ®

Стаж: 6 лет 10 месяцев

Сообщений: 811

Симпатии: 172

Добавил 10 серию

Создавать темы 16-Фев-2016 17:27

[Профиль]  [ЛС] 

GRIMM ®

Стаж: 6 лет 10 месяцев

Сообщений: 811

Симпатии: 172

Добавил 11 серию

Создавать темы 22-Фев-2016 21:22

[Профиль]  [ЛС] 

GRIMM ®

Стаж: 6 лет 10 месяцев

Сообщений: 811

Симпатии: 172

Добавил 12 серию

Создавать темы 29-Фев-2016 18:16

[Профиль]  [ЛС] 

GRIMM ®

Стаж: 6 лет 10 месяцев

Сообщений: 811

Симпатии: 172

Добавил 13 серию

Создавать темы 12-Мар-2016 16:41

[Профиль]  [ЛС] 

GRIMM ®

Стаж: 6 лет 10 месяцев

Сообщений: 811

Симпатии: 172

Добавил 14 серию

Создавать темы 15-Мар-2016 21:10

[Профиль]  [ЛС] 

GRIMM ®

Стаж: 6 лет 10 месяцев

Сообщений: 811

Симпатии: 172

Добавил 15 серию

Создавать темы 24-Мар-2016 09:15

[Профиль]  [ЛС] 

GRIMM ®

Стаж: 6 лет 10 месяцев

Сообщений: 811

Симпатии: 172

Добавил 16 серию

Создавать темы 29-Мар-2016 19:41

[Профиль]  [ЛС] 

GRIMM ®

Стаж: 6 лет 10 месяцев

Сообщений: 811

Симпатии: 172

Добавил 17 серию

Создавать темы 05-Апр-2016 19:29

[Профиль]  [ЛС] 

GRIMM ®

Стаж: 6 лет 10 месяцев

Сообщений: 811

Симпатии: 172

Добавил 18 серию ФИНАЛ СЕЗОНА

Создавать темы 14-Апр-2016 23:11

[Профиль]  [ЛС] 

asil773

Стаж: 5 лет 9 месяцев

Сообщений: 16

Симпатии: 2

dayte skorost. a to jdyom jdyom.

Создавать темы 17-Май-2016 07:56

[Профиль]  [ЛС] 
Показать сообщения:    
Ответить на тему

Текущее время: 22-Ноя 15:44

Часовой пояс: UTC + 5



Вы не можете начинать темы
Вы не можете отвечать на сообщения
Вы не можете редактировать свои сообщения
Вы не можете удалять свои сообщения
Вы не можете голосовать в опросах
Вы не можете прикреплять файлы к сообщениям
Вы не можете скачивать файлы