Переправа 2 / The Crossing 2 (Джон Ву / John Woo) [2015, Китай, Япония, Корея Южная, США, Драма, DVDRip] (Dub : iTunes)

Ответить на тему
 

UZM ®

Стаж: 5 лет 6 месяцев

Сообщений: 169

Симпатии: 189

Переправа 2 / The Crossing 2
Страна: Китай, Япония, Корея Южная, США
Жанр: Драма
Год выпуска: 2015
Продолжительность: 02:06:16
Перевод: Профессиональный (дублированный) Доп. инфо о переводе iTunes
Cубтитры: нет
Режиссер: Джон Ву / John Woo
В ролях: Такэси Канэсиро, Чжан Цзыи, Тун Давэй, Масами Нагасава, Фрэнк М. Эхерн, Шан Конг, Джек Као, Хитоми Куроки, Боуи Лам, Вэй Ли
Описание: Герои фильма уже поднялись на борт злополучного корабля «Тайпин». Как и остальные пассажиры лайнера, они оказались на краю смерти. Всё смешалось в бурном потоке волн: радость и печаль, любовь и ненависть, жизнь и смерть. Кто сможет спастись и вырваться из круговорота трагических событий? А кто навсегда останется погребённым в холодных водах Тайваньского пролива?
Доп. информация: В основе фильме лежат реальные события. 27 января 1949 года китайский лайнер «Тайпин» затонул вблизи Тайваня после столкновения с грузовым кораблём «Цзинь-Юань». Погибло примерно 1500 человек, было спасено меньше 50 (точное количество погибших неизвестно, так как на борту лайнера было много беженцев). Из-за масштабов катастрофы, «Тайпин» называют «китайский «Титаник».
Качество видео: WEB-DLRip
Формат видео: AVI
Видео: MPEG-4, Xvid 720x304 24fps 1267kbps
Аудио: Dolby AC3 48,0Hz 6ch 384kbps

MediaInfo

General
Complete name : D:\Кино\PerepraBa.2.2015.D.WEB-DLRip.1.46GB.avi
Format : AVI
Format/Info : Audio Video Interleave
File size : 1.46 GiB
Duration : 2h 6mn
Overall bit rate : 1 661 Kbps
Writing application : VirtualDubMod 1.5.10.3 | www.virtualdub-fr.org || (build 2550/release)
Writing library : VirtualDubMod build 2550/release
Video
ID : 0
Format : MPEG-4 Visual
Format profile : Advanced [email protected]
Format settings, BVOP : 2
Format settings, QPel : No
Format settings, GMC : No warppoints
Format settings, Matrix : Default (MPEG)
Codec ID : XVID
Codec ID/Hint : XviD
Duration : 2h 6mn
Bit rate : 1 267 Kbps
Width : 720 pixels
Height : 304 pixels
Display aspect ratio : 2.35:1
Frame rate : 24.000 fps
Color space : YUV
Chroma subsampling : 4:2:0
Bit depth : 8 bits
Scan type : Progressive
Compression mode : Lossy
Bits/(Pixel*Frame) : 0.241
Stream size : 1.12 GiB (76%)
Writing library : XviD 1.2.1 (UTC 2008-12-04)
Audio
ID : 1
Format : AC-3
Format/Info : Audio Coding 3
Mode extension : CM (complete main)
Format settings, Endianness : Big
Codec ID : 2000
Duration : 2h 6mn
Bit rate mode : Constant
Bit rate : 384 Kbps
Channel(s) : 6 channels
Channel positions : Front: L C R, Side: L R, LFE
Sampling rate : 48.0 KHz
Compression mode : Lossy
Stream size : 347 MiB (23%)
Alignment : Split accross interleaves
Interleave, duration : 42 ms (1.00 video frame)
Interleave, preload duration : 500 ms

Скриншот c названием фильма

Скриншоты

,
,
,

Создавать темы 22-Ноя-2015 19:44

[Профиль]  [ЛС] 

Топик был перенесен из форума Фильмы за 2015 в форум Азиатские фильмы
mp1988

Создавать темы 23-Ноя-2015 19:52

 
Показать сообщения:    
Ответить на тему

Текущее время: 14-Дек 01:29

Часовой пояс: UTC + 5



Вы не можете начинать темы
Вы не можете отвечать на сообщения
Вы не можете редактировать свои сообщения
Вы не можете удалять свои сообщения
Вы не можете голосовать в опросах
Вы не можете прикреплять файлы к сообщениям
Вы не можете скачивать файлы