Эверест / Everest (Бальтасар Кормакур) [2015, США, Великобритания, Исландия, триллер, драма, приключения, биография, WEB-DL] (Dub : iTunes Russia)

Ответить на тему
 

ziyod ®

Стаж: 7 лет 8 месяцев

Сообщений: 367

Симпатии: 60

Эверест / Everest
Страна: США, Великобритания, Исландия
Жанр: триллер, драма, приключения, биография
Год выпуска: 2015
Продолжительность: 02:01:11
Перевод: Профессиональный (дублированный) iTunes Russia
Cубтитры: нет
Режиссер: Бальтасар Кормакур
В ролях: Джейсон Кларк, Джош Бролин, Джейк Джилленхол, Сэм Уортингтон, Джон Хоукс, Майкл Келли, Ингвар Эггерт Сигюрдссон, Кира Найтли, Эмили Уотсон, Робин Райт
Описание: Эверест — великая неприступная гора, покорить вершину которой мечтают многие профессиональные альпинисты. Одна из экспедиций на ее вершину закончилась настоящей трагедией, однако этот факт не останавливает отважных альпинистов.
Опытный инструктор Роб Холл, собрав группу из лучших альпинистов, собирается совершить восхождение на самую высокую вершину планеты. Все эти люди полны мужества и отваги и они не остановятся ни перед чем, пока не поднимутся на вершину Эвереста. Но даже если эта гора покорится им, смогут ли они вернуться обратно живыми и невредимыми?...
Качество видео: WEB-DL
Формат видео: MKV
Видео: 1916x800 at 23.976 fps, MPEG-4 AVC ~4400 kbps avg
Аудио: 48 kHz, AC3, 3/2 (L,C,R,l,r) + LFE ch, ~384.00 kbps avg

MediaInfo

General
Unique ID : 208600515588064664950832105480593053135 (0x9CEEFF78E6E4BA4184FFF56B1E7F95CF)
Complete name : Эверест.2015.D.WEB-DL.1080p.mkv
Format : Matroska
Format version : Version 4 / Version 2
File size : 4.16 GiB
Duration : 2h 1mn
Overall bit rate : 4 914 Kbps
Encoded date : UTC 2015-11-18 19:16:35
Writing application : mkvmerge v8.3.0 ('Over the Horizon') 64bit
Writing library : libebml v1.3.1 + libmatroska v1.4.2
DURATION : 02:01:11.488000000
NUMBER_OF_FRAMES : 227234
NUMBER_OF_BYTES : 349031424
_STATISTICS_WRITING_APP : mkvmerge v8.3.0 ('Over the Horizon') 64bit
_STATISTICS_WRITING_DATE_UT : 2015-11-18 19:16:35
_STATISTICS_TAGS : BPS DURATION NUMBER_OF_FRAMES NUMBER_OF_BYTES
Video
ID : 1
Format : AVC
Format/Info : Advanced Video Codec
Format profile : [email protected]
Format settings, CABAC : Yes
Format settings, ReFrames : 5 frames
Codec ID : V_MPEG4/ISO/AVC
Duration : 2h 1mn
Bit rate : 4 432 Kbps
Width : 1 916 pixels
Height : 800 pixels
Display aspect ratio : 2.40:1
Frame rate mode : Constant
Frame rate : 23.976 fps
Color space : YUV
Chroma subsampling : 4:2:0
Bit depth : 8 bits
Scan type : Progressive
Bits/(Pixel*Frame) : 0.121
Stream size : 3.75 GiB (90%)
Language : English
Default : Yes
Forced : No
Color range : Limited
Color primaries : BT.709
Transfer characteristics : BT.709
Matrix coefficients : BT.709
Audio
ID : 2
Format : AC-3
Format/Info : Audio Coding 3
Mode extension : CM (complete main)
Format settings, Endianness : Big
Codec ID : A_AC3
Duration : 2h 1mn
Bit rate mode : Constant
Bit rate : 384 Kbps
Channel(s) : 6 channels
Channel positions : Front: L C R, Side: L R, LFE
Sampling rate : 48.0 KHz
Compression mode : Lossy
Stream size : 333 MiB (8%)
Language : Russian
Default : Yes
Forced : No
Menu
00:00:00.000 : en:глава 1
00:05:14.000 : en:глава 2
00:09:38.000 : en:глава 3
00:15:15.000 : en:глава 4
00:21:00.000 : en:глава 5
00:26:32.000 : en:глава 6
00:33:17.000 : en:глава 7
00:40:25.000 : en:глава 8
00:47:25.000 : en:глава 9
00:52:16.000 : en:глава 10
00:57:51.000 : en:глава 11
01:01:56.000 : en:глава 12
01:07:24.000 : en:глава 13
01:15:42.000 : en:глава 14
01:21:05.000 : en:глава 15
01:27:01.000 : en:глава 16
01:32:41.000 : en:глава 17
01:41:22.000 : en:глава 18
01:46:49.000 : en:глава 19
01:54:06.000 : en:глава 20

Скриншоты



Создавать темы 23-Ноя-2015 09:50

[Профиль]  [ЛС] 
Показать сообщения:    
Ответить на тему

Текущее время: 18-Ноя 22:44

Часовой пояс: UTC + 5



Вы не можете начинать темы
Вы не можете отвечать на сообщения
Вы не можете редактировать свои сообщения
Вы не можете удалять свои сообщения
Вы не можете голосовать в опросах
Вы не можете прикреплять файлы к сообщениям
Вы не можете скачивать файлы