Kill la kill / Круши кромсай (Имайси Хироюки) [OVA] [без хардсаба] [1 из 1] [RUS(int), JAP+SUB] [2014 г., комедия, приключения, фентези, этти, BDRip] [720p]

Ответить на тему
 

Choris ®

Стаж: 2 года 3 месяца

Сообщений: 61

Симпатии: 54

Год выпуска: 2014
Страна: Япония
Жанр: комедия, приключения, фэнтези, этти
Продолжительность: 1 эп. по 27 мин.-Перевод: Jeka
Озвучивание: Cuba77 & Trina_D-Описание: Финальный эпизод оригинального сериала, вышедший на DVD/BluRay.-Режиссёр: Имайси Хироюки
Студия:
Автор оригинала / Сценарист: Накасима Кадзуки-Качество: BDRip
Формат: MKV
Видео: x264, ~5 339 Kbps, 1280x720, 23.976 fps
Аудио JAP: Vorbis, 48.0 KHz, ~256 Kbps, 2 channels
Аудио RUS: AC3, 48.0 KHz, ~192 kbps, 2 channels

Media info

General
Unique ID                   : 204395221145737247163149519488990406490 (0x99C51672D0627DBF96BE687F6651675A)
Complete name               : D:\anime\Kill la Kill [HD] [720p]\[Winter] Kill la Kill (Sayonara o Mou Ichido) [BDrip 1280x720 x264 Vorbis].mkv
Format                      : Matroska
Format version              : Version 4 / Version 2
File size                   : 1.13 GiB
Duration                    : 27mn 18s
Overall bit rate mode       : Variable
Overall bit rate            : 5 905 Kbps
Encoded date                : UTC 2015-10-26 17:54:19
Writing application         : mkvmerge v8.3.0 ('Over the Horizon') 32bit
Writing library             : libebml v1.3.1 + libmatroska v1.4.2
DURATION                    : 00:27:18.624000000
NUMBER_OF_FRAMES            : 51207
NUMBER_OF_BYTES             : 39326976
_STATISTICS_WRITING_APP     : mkvmerge v8.3.0 ('Over the Horizon') 32bit
_STATISTICS_WRITING_DATE_UT : 2015-10-26 17:54:19
_STATISTICS_TAGS            : BPS DURATION NUMBER_OF_FRAMES NUMBER_OF_BYTES
Video
ID                          : 1
Format                      : AVC
Format/Info                 : Advanced Video Codec
Format profile              : High [email protected]
Format settings, CABAC      : Yes
Format settings, ReFrames   : 9 frames
Codec ID                    : V_MPEG4/ISO/AVC
Duration                    : 27mn 18s
Bit rate                    : 5 339 Kbps
Width                       : 1 280 pixels
Height                      : 720 pixels
Display aspect ratio        : 16:9
Frame rate mode             : Constant
Frame rate                  : 23.976 fps
Color space                 : YUV
Chroma subsampling          : 4:2:0
Bit depth                   : 10 bits
Scan type                   : Progressive
Bits/(Pixel*Frame)          : 0.242
Stream size                 : 1.02 GiB (90%)
Writing library             : x264 core 132 r2309 3b1f1f7
Encoding settings           : cabac=1 / ref=9 / deblock=1:-2:-2 / analyse=0x3:0x133 / me=umh / subme=9 / psy=1 / psy_rd=0.90:0.00 / mixed_ref=1 / me_range=24 / chroma_me=1 / trellis=2 / 8x8dct=1 / cqm=0 / deadzone=21,11 / fast_pskip=1 / chroma_qp_offset=-2 / threads=12 / lookahead_threads=2 / sliced_threads=0 / nr=0 / decimate=0 / interlaced=0 / bluray_compat=0 / constrained_intra=0 / bframes=8 / b_pyramid=2 / b_adapt=2 / b_bias=0 / direct=1 / weightb=1 / open_gop=0 / weightp=2 / keyint=250 / keyint_min=23 / scenecut=40 / intra_refresh=0 / rc=crf / mbtree=0 / crf=18.6 / qcomp=0.70 / qpmin=9 / qpmax=40 / qpstep=4 / ip_ratio=1.40 / pb_ratio=1.30 / aq=1:0.90
Default                     : No
Forced                      : No
DURATION                    : 00:27:18.637000000
NUMBER_OF_FRAMES            : 39288
NUMBER_OF_BYTES             : 1118854963
_STATISTICS_WRITING_APP     : mkvmerge v8.3.0 ('Over the Horizon') 32bit
_STATISTICS_WRITING_DATE_UT : 2015-10-26 17:54:19
_STATISTICS_TAGS            : BPS DURATION NUMBER_OF_FRAMES NUMBER_OF_BYTES
Audio #1
ID                          : 2
Format                      : Vorbis
Format settings, Floor      : 1
Codec ID                    : A_VORBIS
Duration                    : 27mn 18s
Bit rate mode               : Variable
Bit rate                    : 256 Kbps
Channel(s)                  : 2 channels
Sampling rate               : 48.0 KHz
Compression mode            : Lossy
Stream size                 : 50.0 MiB (4%)
Writing library             : libVorbis (Schaufenugget) (20101101 (Schaufenugget))
Language                    : Japanese
Default                     : No
Forced                      : No
Audio #2
ID                          : 3
Format                      : AC-3
Format/Info                 : Audio Coding 3
Mode extension              : CM (complete main)
Format settings, Endianness : Big
Codec ID                    : A_AC3
Duration                    : 27mn 18s
Bit rate mode               : Constant
Bit rate                    : 192 Kbps
Channel(s)                  : 2 channels
Channel positions           : Front: L R
Sampling rate               : 48.0 KHz
Compression mode            : Lossy
Stream size                 : 37.5 MiB (3%)
Language                    : Russian
Default                     : Yes
Forced                      : No

Скриншоты




Создавать темы 23-Ноя-2015 14:31

[Профиль]  [ЛС] 
Показать сообщения:    
Ответить на тему

Текущее время: 18-Авг 14:01

Часовой пояс: UTC + 5



Вы не можете начинать темы
Вы не можете отвечать на сообщения
Вы не можете редактировать свои сообщения
Вы не можете удалять свои сообщения
Вы не можете голосовать в опросах
Вы не можете прикреплять файлы к сообщениям
Вы не можете скачивать файлы