Ночевка / The Overnight (Патрик Брайс) [2015, США, Детектив, Комедия, WEBDLRip][Dub][iTunes]

Ответить на тему
 

Hurracan ®

Стаж: 2 года

Сообщений: 79

Симпатии: 80

Ночевка / The Overnight
Страна: США
Жанр: Детектив, Комедия
Год выпуска: 2015
Продолжительность: 01:23:14
Перевод: Профессиональный (дублированный)[iTunes]
Cубтитры: нет
Режиссер: Патрик Брайс
В ролях: Адам Скотт, Джейсон Шварцман, Жюдит Годреш, Тейлор Шиллинг, Сьюзен Трейлор, Р.Дж. Хермс, Макс Моритт, Кайл Филд, Сара ДеВисентис
Описание: Алекс, Эмили и их сын только переехали в Лос-Анджелес и отчаянно пытаются завести новых друзей. После случайной встречи с неким Куртом в местном парке, они с радостью принимают его приглашение присоединиться к семейному ужину. Но после того, как их дети ложатся спать, вечер перестает быть томным — потому что пары начинают делиться своими сокровенными тайнами…
Доп. информация:
Сценаристы: Патрик Брайс
Продюсеры: Наоми Скотт, Марк Дюпласс, Джей Дюпласс
Качество видео: WEBDLRip
Формат видео: AVI
Видео: Xvid 720x384 23.976fps 1955kbps
Аудио: Dolby AC3 48000Hz stereo 384kbps

MediaInfo

General
Complete name : C:\Users\Hurracan\Downloads\Video\0vern1ght.2015.D.WEB-DLRip.1400Mb.avi
Format : AVI
Format/Info : Audio Video Interleave
File size : 1.37 GiB
Duration : 1h 23mn
Overall bit rate : 2 349 Kbps
Writing application : VirtualDubMod 1.5.10.2 (build 2540/release)
Writing library : VirtualDubMod build 2540/release
Video
ID : 0
Format : MPEG-4 Visual
Format profile : Advanced [email protected]
Format settings, BVOP : 2
Format settings, QPel : No
Format settings, GMC : No warppoints
Format settings, Matrix : Default (MPEG)
Codec ID : XVID
Codec ID/Hint : XviD
Duration : 1h 23mn
Bit rate : 1 955 Kbps
Width : 720 pixels
Height : 384 pixels
Display aspect ratio : 1.85:1
Frame rate : 23.976 fps
Color space : YUV
Chroma subsampling : 4:2:0
Bit depth : 8 bits
Scan type : Progressive
Compression mode : Lossy
Bits/(Pixel*Frame) : 0.295
Stream size : 1.14 GiB (83%)
Writing library : XviD 1.2.1 (UTC 2008-12-04)
Audio
ID : 1
Format : AC-3
Format/Info : Audio Coding 3
Mode extension : CM (complete main)
Format settings, Endianness : Big
Codec ID : 2000
Duration : 1h 23mn
Bit rate mode : Constant
Bit rate : 384 Kbps
Channel(s) : 2 channels
Channel positions : Front: L R
Sampling rate : 48.0 KHz
Compression mode : Lossy
Stream size : 229 MiB (16%)
Alignment : Split accross interleaves
Interleave, duration : 42 ms (1.00 video frame)
Interleave, preload duration : 500 ms

Скриншоты




Создавать темы 23-Ноя-2015 16:33

[Профиль]  [ЛС] 
Показать сообщения:    
Ответить на тему

Текущее время: 25-Сен 18:22

Часовой пояс: UTC + 5



Вы не можете начинать темы
Вы не можете отвечать на сообщения
Вы не можете редактировать свои сообщения
Вы не можете удалять свои сообщения
Вы не можете голосовать в опросах
Вы не можете прикреплять файлы к сообщениям
Вы не можете скачивать файлы