Наркотик / Dope (Рик Фамуйива) [2015, США, Драма,Комедия,Криминал, HDRip][Dub][iTunes]

Ответить на тему
 

Hurracan ®

Стаж: 2 года 1 месяц

Сообщений: 79

Симпатии: 80

Наркотик / Dope
Страна: США
Жанр: Драма,Комедия,Криминал
Год выпуска: 2015
Продолжительность: 01:43:18
Перевод: Профессиональный (дублированный) [iTunes]
Cубтитры: нет
Режиссер: Рик Фамуйива
В ролях: Брюс Битти, Кирси Клемонс, Кимберли Элиз, Раким Мэйерс, Блейк Андерсон, Де’андре Бондс, Джулиан Брэнд, Куинси Браун, Рик Фокс, Кристофер Гленн
Описание: В центре истории подросток, мечтающий учиться в Гарварде, однако живет он в преступном района Инглвуда, откуда выбраться не так уж и просто.
Доп. информация:
Сценаристы: Рик Фамуйива
Продюсеры: Форест Уитакер, Нина Янг Бонджови, Эрика Брэйди
Бюджет: 700 000 $
Рейтинг КиноПоиск.Ru: 7.133 (3218)
Рейтинг IMDb: 7.3 (21928)
Качество видео: HDRip
Формат видео: AVI
Видео: Xvid 720x304 23.976fps 1500kbps
Аудио: Dolby AC3 48000Hz 6ch 384kbps

MediaInfo

General
Complete name : C:\Users\Hurracan\Downloads\Video\Narkota.2O15.P.HDRip.14OOMb.avi
Format : AVI
Format/Info : Audio Video Interleave
File size : 1.37 GiB
Duration : 1h 43mn
Overall bit rate : 1 894 Kbps
Writing application : VirtualDubMod 1.5.10.2 (build 2540/release)
Writing library : VirtualDubMod build 2540/release
Video
ID : 0
Format : MPEG-4 Visual
Format profile : Advanced [email protected]
Format settings, BVOP : 2
Format settings, QPel : No
Format settings, GMC : No warppoints
Format settings, Matrix : Default (MPEG)
Codec ID : XVID
Codec ID/Hint : XviD
Duration : 1h 43mn
Bit rate : 1 501 Kbps
Width : 720 pixels
Height : 304 pixels
Display aspect ratio : 2.35:1
Frame rate : 23.976 fps
Color space : YUV
Chroma subsampling : 4:2:0
Bit depth : 8 bits
Scan type : Progressive
Compression mode : Lossy
Bits/(Pixel*Frame) : 0.286
Stream size : 1.08 GiB (79%)
Writing library : XviD 1.2.1 (UTC 2008-12-04)
Audio
ID : 1
Format : AC-3
Format/Info : Audio Coding 3
Mode extension : CM (complete main)
Format settings, Endianness : Big
Codec ID : 2000
Duration : 1h 43mn
Bit rate mode : Constant
Bit rate : 384 Kbps
Channel(s) : 6 channels
Channel positions : Front: L C R, Side: L R, LFE
Sampling rate : 48.0 KHz
Compression mode : Lossy
Stream size : 283 MiB (20%)
Alignment : Split accross interleaves
Interleave, duration : 42 ms (1.00 video frame)
Interleave, preload duration : 500 ms

Скриншоты




Создавать темы 23-Ноя-2015 17:07

[Профиль]  [ЛС] 

smthngwrong

Стаж: 2 года 5 месяцев

Сообщений: 3

Симпатии: 2

поделитесь кто-нибудь OST'ом

Создавать темы 28-Ноя-2015 12:42

[Профиль]  [ЛС] 

hunter07

Стаж: 4 года 5 месяцев

Сообщений: 15

Симпатии: 1

960371поделитесь кто-нибудь OST'ом
AWREEOH-its my turn now

Создавать темы 11-Дек-2015 19:36

[Профиль]  [ЛС] 

.BaTMaN.

Стаж: 2 года 7 месяцев

Сообщений: 3

Симпатии: 1

Хороший фильм!

Создавать темы 31-Дек-2015 16:38

[Профиль]  [ЛС] 
Показать сообщения:    
Ответить на тему

Текущее время: 21-Ноя 09:24

Часовой пояс: UTC + 5



Вы не можете начинать темы
Вы не можете отвечать на сообщения
Вы не можете редактировать свои сообщения
Вы не можете удалять свои сообщения
Вы не можете голосовать в опросах
Вы не можете прикреплять файлы к сообщениям
Вы не можете скачивать файлы