Остров / Island (Фёдор Хитрук) [1973, СССР, антиутопия, DVDRip-AVC] (Союзмультфильм)

Ответить на тему
 

InchuChe ®

Стаж: 1 год 9 месяцев

Сообщений: 5

Симпатии: 3

Остров / Island
Страна: СССР
Жанр: антиутопия
Год выпуска: 1973
Продолжительность: 9:03
Перевод: Не требуется Доп. инфо о переводе
Cубтитры: нет
Режиссер: Фёдор Хитрук
В ролях: Рисованный человек
Описание: История современного Робинзона.
Доп. информация: Награды:
1974 — IX МФ к/м фильмов в Кракове — Гран-При «Золотой Дракон Вавеля»; Денежная премия; Диплом СИДАЛЬК;
1974 — XXVII КФ в Канне — Гран-При «Золотая пальмовая ветвь за короткометражный фильм»;
1974 — VII Всесоюзный кинофестиваль в Баку — Вторая премия по разделу мультипликационных фильмов
1976 — Государственная премия СССР
Качество видео: DVDRip-AVC
Формат видео: MP4
Видео: Video: MPEG4 Video (H264) 600x480 25fps 737kbps [V: h264 main L3.0, yuv420p, 600x480, 737 kb/s]
Аудио: Audio: AAC 44100Hz mono 99kbps [A: aac lc, 44100 Hz, mono, 99 kb/s]

MediaInfo

General
Complete name : D:\Видео\Советские мультфильмы\достойно внимания\Остров Ostrov.flv
Format : Flash Video
File size : 53.4 MiB
Duration : 9mn 3s
Overall bit rate : 825 Kbps
httphostheader : r2---sn-boj5a45-x8oe.c.youtube.com
Video
Format : AVC
Format/Info : Advanced Video Codec
Format profile : [email protected]
Format settings, CABAC : Yes
Format settings, ReFrames : 3 frames
Codec ID : 7
Duration : 9mn 3s
Bit rate : 720 Kbps
Width : 600 pixels
Height : 480 pixels
Display aspect ratio : 5:4
Frame rate mode : Constant
Frame rate : 25.000 fps
Color space : YUV
Chroma subsampling : 4:2:0
Bit depth : 8 bits
Scan type : Progressive
Bits/(Pixel*Frame) : 0.100
Stream size : 46.6 MiB (87%)
Audio
Format : AAC
Format/Info : Advanced Audio Codec
Format profile : LC
Codec ID : 10
Duration : 9mn 3s
Bit rate : 96.7 Kbps
Channel(s) : 2 channels
Channel(s)_Original : 1 channel
Channel positions : Front: C
Sampling rate : 44.1 KHz
Compression mode : Lossy
Stream size : 6.26 MiB (12%)

Скриншот c названием фильма

Скриншоты



Создавать темы 23-Ноя-2015 22:18

[Профиль]  [ЛС] 

Топик был перенесен из форума CamRip, DVDScr и т.п. в форум Мультфильмы
Mixer City

Создавать темы 24-Ноя-2015 11:56

 
Показать сообщения:    
Ответить на тему

Текущее время: 21-Авг 04:14

Часовой пояс: UTC + 5



Вы не можете начинать темы
Вы не можете отвечать на сообщения
Вы не можете редактировать свои сообщения
Вы не можете удалять свои сообщения
Вы не можете голосовать в опросах
Вы не можете прикреплять файлы к сообщениям
Вы не можете скачивать файлы