Дьявол / Devil (Джон Даудли, Дрю Даудли) [2010, США, ужасы, триллер, HDRip] (Dub) (Sub Rus)

Ответить на тему
 

lucky999 ®

Стаж: 2 года 2 месяца

Сообщений: 32

Симпатии: 43

Дьявол / Devil
Страна: США
Жанр: ужасы, триллер
Год выпуска: 2010
Продолжительность: 01:20:29
Перевод: Профессиональный (дублированный)
Cубтитры: русские
Режиссер: Джон Даудли, Дрю Даудли
В ролях: Крис Мессина, Джеффри Аренд, Бояна Новакович, Логан Маршалл-Грин, Каролин Дхавернас, Джейкоб Варгас, Буким Вудбайн, Мэтт Крэвен, Дженни О'Хара, Ким Робертс
Описание: Несколько людей оказавшихся в застрявшем лифте, со временем понимают, что среди них присутствует сам дьявол.
Доп. информация: Бюджет: $10 млн.
Качество видео: HDRip
Формат видео: AVI
Видео: Xvid 720x304 23.98fps 2124kbps
Аудио: Dolby AC3 44100Hz stereo 223kbps

MediaInfo

General
Complete name : E:\torrent\devilLL.avi
Format : AVI
Format/Info : Audio Video Interleave
File size : 1.45 GiB
Duration : 1h 20mn
Overall bit rate : 2 587 Kbps
Writing application : VirtualDubMod 1.5.10.2 (build 2540/release)
Writing library : VirtualDubMod build 2540/release
Video
ID : 0
Format : MPEG-4 Visual
Format profile : Advanced [email protected]
Format settings, BVOP : 1
Format settings, QPel : No
Format settings, GMC : No warppoints
Format settings, Matrix : Custom
Muxing mode : Packed bitstream
Codec ID : XVID
Codec ID/Hint : XviD
Duration : 1h 20mn
Bit rate : 2 125 Kbps
Width : 720 pixels
Height : 304 pixels
Display aspect ratio : 2.35:1
Frame rate : 23.976 fps
Color space : YUV
Chroma subsampling : 4:2:0
Bit depth : 8 bits
Scan type : Progressive
Compression mode : Lossy
Bits/(Pixel*Frame) : 0.405
Stream size : 1.19 GiB (82%)
Writing library : XviD 1.2.1 (UTC 2008-12-04)
Audio #1
ID : 1
Format : AC-3
Format/Info : Audio Coding 3
Mode extension : CM (complete main)
Codec ID : 2000
Duration : 1h 20mn
Bit rate mode : Constant
Bit rate : 224 Kbps
Channel(s) : 2 channels
Channel positions : Front: L R
Sampling rate : 44.1 KHz
Bit depth : 16 bits
Compression mode : Lossy
Stream size : 129 MiB (9%)
Alignment : Split accross interleaves
Interleave, duration : 42 ms (1.00 video frame)
Interleave, preload duration : 500 ms
Audio #2
ID : 2
Format : AC-3
Format/Info : Audio Coding 3
Mode extension : CM (complete main)
Codec ID : 2000
Duration : 1h 20mn
Bit rate mode : Constant
Bit rate : 224 Kbps
Channel(s) : 2 channels
Channel positions : Front: L R
Sampling rate : 44.1 KHz
Bit depth : 16 bits
Compression mode : Lossy
Stream size : 129 MiB (9%)
Alignment : Split accross interleaves
Interleave, duration : 42 ms (1.00 video frame)
Interleave, preload duration : 500 ms

Скриншот c названием фильма

Скриншоты



Последний раз редактировалось: lucky999 (2015-11-24 12:50), всего редактировалось 1 раз

Создавать темы 23-Ноя-2015 22:40

[Профиль]  [ЛС] 

Mixer City

Стаж: 6 лет 10 месяцев

Сообщений: 754

Симпатии: 63

lucky999, скрины по инструкции: https://tas-ix.net/viewtopic.php?t=41311

Создавать темы 24-Ноя-2015 11:55

[Профиль]  [ЛС] 

Iboka

Стаж: 10 месяцев 17 дней

Сообщений: 8

дайте скорости

Создавать темы 11-Апр-2017 15:03

[Профиль]  [ЛС] 
Показать сообщения:    
Ответить на тему

Текущее время: 18-Ноя 17:20

Часовой пояс: UTC + 5



Вы не можете начинать темы
Вы не можете отвечать на сообщения
Вы не можете редактировать свои сообщения
Вы не можете удалять свои сообщения
Вы не можете голосовать в опросах
Вы не можете прикреплять файлы к сообщениям
Вы не можете скачивать файлы