Сестринство ночи / The Sisterhood of Night (Кэрин Вэйчтер) [2014, Чили, США, триллер, драма, детектив, HDRip] (DVO : [den904 & DeadSno]) (Sub Rus)

Ответить на тему
 

lucky999 ®

Стаж: 1 год 11 месяцев

Сообщений: 32

Симпатии: 43

Сестринство ночи / The Sisterhood of Night
Страна: Чили, США
Жанр: триллер, драма, детектив
Год выпуска: 2014
Продолжительность: 01:42:45
Перевод: Любительский (двухголосый) Доп. инфо о переводе [den904 & DeadSno]
Cубтитры: русские
Режиссер: Кэрин Вэйчтер
В ролях: Джорджи Хенли, Кара Хэйуорд, Уилла Катрелл, Оливия ДеДжондж, Кэл Пенн, Лора Фрейзер, Гари Уилмс, Нил Хафф, Хадсон Янг, Луис Одзава Чангчьен
Описание: Фильм повествует о девушке, которая создает тайное общество и вовлекает в него всех девушек из своей школы. Постепенно не только ее городок, но и другие города охватывает истерия, где желание попасть в эту странную секту и страх перед ней - ключевые эмоции, царящие в обществе. Вдобавок ко всему, СМИ как обычно раздувают вокруг происходящего шумиху. Подливает масла в огонь еще и секс-скандал вокруг связи участницы тайного общества и учителем школы, в которой она учится. Логичным исходом всего этого психоза становится трагедия...
Доп. информация: IMDB рейтинг: 6.2/10
КиноПоиск рейтинг: 6.8/10
Качество видео: WEB-DLRip
Формат видео: AVI
Видео: AVI, 1603 kb/s, 720x296
Аудио: Russian / English: AC3, 192 kb/s (2 ch)

MediaInfo

General
Complete name : E:\torrent\Sestrinstvo.nochi.2014.L2.WEB-DLRip.avi
Format : AVI
Format/Info : Audio Video Interleave
File size : 1.44 GiB
Duration : 1h 42mn
Overall bit rate : 2 001 Kbps
Writing application : VirtualDubMod 1.5.10.3 | www.virtualdub-fr.org || (build 2550/release)
Writing library : VirtualDubMod build 2550/release
Video
ID : 0
Format : MPEG-4 Visual
Format profile : Advanced [email protected]
Format settings, BVOP : 2
Format settings, QPel : No
Format settings, GMC : No warppoints
Format settings, Matrix : Default (H.263)
Codec ID : XVID
Codec ID/Hint : XviD
Duration : 1h 42mn
Bit rate : 1 603 Kbps
Width : 720 pixels
Height : 296 pixels
Display aspect ratio : 2.40:1
Frame rate : 23.976 fps
Color space : YUV
Chroma subsampling : 4:2:0
Bit depth : 8 bits
Scan type : Progressive
Compression mode : Lossy
Bits/(Pixel*Frame) : 0.314
Stream size : 1.15 GiB (80%)
Writing library : XviD 73
Audio #1
ID : 1
Format : AC-3
Format/Info : Audio Coding 3
Mode extension : CM (complete main)
Codec ID : 2000
Duration : 1h 42mn
Bit rate mode : Constant
Bit rate : 192 Kbps
Channel(s) : 2 channels
Channel positions : Front: L R
Sampling rate : 48.0 KHz
Bit depth : 16 bits
Compression mode : Lossy
Stream size : 141 MiB (10%)
Alignment : Split accross interleaves
Interleave, duration : 42 ms (1.00 video frame)
Interleave, preload duration : 500 ms
Audio #2
ID : 2
Format : AC-3
Format/Info : Audio Coding 3
Mode extension : CM (complete main)
Codec ID : 2000
Duration : 1h 42mn
Bit rate mode : Constant
Bit rate : 192 Kbps
Channel(s) : 2 channels
Channel positions : Front: L R
Sampling rate : 48.0 KHz
Bit depth : 16 bits
Compression mode : Lossy
Stream size : 141 MiB (10%)
Alignment : Split accross interleaves
Interleave, duration : 42 ms (1.00 video frame)
Interleave, preload duration : 500 ms

Скриншоты

Создавать темы 23-Ноя-2015 23:34

[Профиль]  [ЛС] 
Показать сообщения:    
Ответить на тему

Текущее время: 22-Авг 02:40

Часовой пояс: UTC + 5



Вы не можете начинать темы
Вы не можете отвечать на сообщения
Вы не можете редактировать свои сообщения
Вы не можете удалять свои сообщения
Вы не можете голосовать в опросах
Вы не можете прикреплять файлы к сообщениям
Вы не можете скачивать файлы