Как я стал русским / Сезон: 1 / Серии: 1-20 из 20 (Константин Статский) [2015, комедия, SATRip]

Ответить на тему
 

Sunnat1999 ®

Стаж: 4 года 7 месяцев

Сообщений: 756

Симпатии: 416

Как я стал русскимСерии: 1-20 из 20-- Год выпуска: 2015
Производство: Россия
Жанр: комедия
Продолжительность: ~ 00:25:00
Режиссёр: Константин Статский-В ролях: Матеуш Даменцки, Сергей Чирков, Светлана Иванова, Александра Урсуляк, Анастасия Стежко, Денис Пьянов, Виталий Хаев, Никита Панфилов, Елизавета Кононова, Александра Кузенкина-Описание: Сотрудник газеты American Post Алекс Уилсон отправляется в долгосрочную командировку в Россию, где ему предстоит не только ежедневно изучать удивительную российскую действительность, но и постепенно постигать загадочную русскую душу. Помимо выполнения редакционных заданий, Алекс заводит личный блог, где каждый день будет пытаться ответить на вопрос «что значит быть русским?»-Доп. информация:
 

-Качество: SATRip
Формат: AVI
Видео кодек: XviD
Аудио кодек: AC3
Видео: XviD, ~ 1810 Кбит/с, 720x400
Аудио: Русский (AC3, 2 ch, 192 Кбит/с)
-ВНИМАНИЕ! РАЗДАЧА ВЕДЁТСЯ ПУТЁМ ДОБАВЛЕНИЯ НОВЫХ СЕРИЙ!
ДОБАВЛЕНА 20-СЕРИЯ, ПЕРЕКАЧАЙТЕ ПОЖАЛУЙСТА ТОРРЕНТ!

Как обновить торрент

Когда раздача ведётся путём добавления новых серий, при каждом добавлении создётся новый торрент. Чтобы начать докачку новой серии, пользователям необходимо сделать следующее:
(1) остановить скачивание,
(2) удалить старый торрент у себя из клиента (старые серии удалять не надо),
(3) скачать новый торрент и запустить его у себя в клиенте вместо старого, при этом указать клиенту путь в старую папку, куда и должно происходить скачивание новых серий.
Ваш клиент при этом должен произвести хеширование (проверку) старой папки (если не производит сам - помогите ему сделать это), и будет докачивать только те серии, которых у вас ещё нет. Старые серии при этом не удаляются, а продолжают раздаваться!
Eсли вы уже удалили старые серии, то предотвратить повторную закачку старых серий можно, отжав галочку в соответсвующих местах при запуске нового торрента. По возможности, желательно не удалять старые серии как можно дольше, чтобы релизёр не столько продолжал раздавать старые серии, а смог сконцентрироваться на новых.

MI

General
Complete name : \Как я стал русским 2015 SATRip\Серия 01.avi
Format : AVI
Format/Info : Audio Video Interleave
File size : 391 MiB
Duration : 27mn 9s
Overall bit rate : 2 012 Kbps
Writing library : VirtualDub build 35512/release
Video
ID : 0
Format : MPEG-4 Visual
Format profile : Advanced [email protected]
Format settings, BVOP : 2
Format settings, QPel : No
Format settings, GMC : No warppoints
Format settings, Matrix : Default (MPEG)
Codec ID : XVID
Codec ID/Hint : XviD
Duration : 27mn 9s
Bit rate : 1 810 Kbps
Width : 720 pixels
Height : 400 pixels
Display aspect ratio : 16:9
Frame rate : 25.000 fps
Color space : YUV
Chroma subsampling : 4:2:0
Bit depth : 8 bits
Scan type : Progressive
Compression mode : Lossy
Bits/(Pixel*Frame) : 0.251
Stream size : 352 MiB (90%)
Writing library : XviD 73
Audio
ID : 1
Format : AC-3
Format/Info : Audio Coding 3
Mode extension : CM (complete main)
Format settings, Endianness : Big
Codec ID : 2000
Duration : 27mn 9s
Bit rate mode : Constant
Bit rate : 192 Kbps
Channel(s) : 2 channels
Channel positions : Front: L R
Sampling rate : 48.0 KHz
Compression mode : Lossy
Stream size : 37.3 MiB (10%)
Alignment : Aligned on interleaves
Interleave, duration : 40 ms (1.00 video frame)
Interleave, preload duratio : 512 ms
Скриншоты


Последний раз редактировалось: Sunnat1999 (2015-12-21 10:23), всего редактировалось 8 раз(а)

Создавать темы 24-Ноя-2015 06:10

[Профиль]  [ЛС] 

Sunnat1999 ®

Стаж: 4 года 7 месяцев

Сообщений: 756

Симпатии: 416

ДОБАВЛЕНА 14-СЕРИЯ, ПЕРЕКАЧАЙТЕ ПОЖАЛУЙСТА ТОРРЕНТ!

Создавать темы 24-Ноя-2015 06:11

[Профиль]  [ЛС] 

Sunnat1999 ®

Стаж: 4 года 7 месяцев

Сообщений: 756

Симпатии: 416

ДОБАВЛЕНА 15-СЕРИЯ, ПЕРЕКАЧАЙТЕ ПОЖАЛУЙСТА ТОРРЕНТ!

Создавать темы 25-Ноя-2015 09:09

[Профиль]  [ЛС] 

Sunnat1999 ®

Стаж: 4 года 7 месяцев

Сообщений: 756

Симпатии: 416

ДОБАВЛЕНА 16-СЕРИЯ, ПЕРЕКАЧАЙТЕ ПОЖАЛУЙСТА ТОРРЕНТ!

Создавать темы 26-Ноя-2015 10:40

[Профиль]  [ЛС] 

Sunnat1999 ®

Стаж: 4 года 7 месяцев

Сообщений: 756

Симпатии: 416

ДОБАВЛЕНА 17-СЕРИЯ, ПЕРЕКАЧАЙТЕ ПОЖАЛУЙСТА ТОРРЕНТ!

Создавать темы 26-Ноя-2015 18:42

[Профиль]  [ЛС] 

Sunnat1999 ®

Стаж: 4 года 7 месяцев

Сообщений: 756

Симпатии: 416

ДОБАВЛЕНА 18-СЕРИЯ, ПЕРЕКАЧАЙТЕ ПОЖАЛУЙСТА ТОРРЕНТ!

Создавать темы 30-Ноя-2015 19:28

[Профиль]  [ЛС] 

Sunnat1999 ®

Стаж: 4 года 7 месяцев

Сообщений: 756

Симпатии: 416

ДОБАВЛЕНА 19-СЕРИЯ, ПЕРЕКАЧАЙТЕ ПОЖАЛУЙСТА ТОРРЕНТ!

Создавать темы 01-Дек-2015 17:15

[Профиль]  [ЛС] 

Sunnat1999 ®

Стаж: 4 года 7 месяцев

Сообщений: 756

Симпатии: 416

ДОБАВЛЕНА 20-СЕРИЯ. ПОЛНЫЙ СЕЗОН!

Создавать темы 02-Дек-2015 19:52

[Профиль]  [ЛС] 
Показать сообщения:    
Ответить на тему

Текущее время: 19-Окт 19:49

Часовой пояс: UTC + 5



Вы не можете начинать темы
Вы не можете отвечать на сообщения
Вы не можете редактировать свои сообщения
Вы не можете удалять свои сообщения
Вы не можете голосовать в опросах
Вы не можете прикреплять файлы к сообщениям
Вы не можете скачивать файлы