Ужин с придурком / Le dîner de cons (Франсис Вебер) [1998, Франция, комедия, BDRip] (MVO)

Ответить на тему
 

lotto ®

Стаж: 7 лет 9 месяцев

Сообщений: 221

Симпатии: 409

Ужин с придурком / Le dîner de cons-- Страна: Франция
Жанр: комедия
Год выпуска: 1998
Продолжительность: 01:20:00
Перевод: Профессиональный (многоголосый закадровый)
Cубтитры: нет--Режиссер: Франсис Вебер
В ролях: Тьерри Лермитт, Жак Вильре, Франсис Юстер, Даниэль Прево, Александра Вандернот, Катрин Фро, Benoît Bellal, Жак Блю, Филипп Бриго, Мишель Качча--Описание: Богатый издатель раз в неделю крайне необычно развлекается с друзьями. Каждый приглашает на ужин придурка, над которым все издеваются, веселятся, а бедолага даже этого не понимает. Тот, кто приведет самого смешного придурка, выигрывает. По рекомендации знакомого Пьер Брошан приглашает на ужин потенциального чемпиона в лице скромного налогового инспектора. Однако в этот день ему не повезло — на игре в гольф он сильно повредил спину, и ужин был отменен.
Придурок тем не менее появляется, а жена Брошана, осуждающая такое жестокое и злое развлечение, уходит еще раньше, как она говорит, «в гости». Позже она звонит по телефону и сообщает, что уходит навсегда. Почти обездвиженный Брошан ищет свою жену, и ему во всем приходится полагаться на своего придурка, благодаря талантам которого он раз за разом попадает в самые нелепые и смешные ситуации. Придурок не может правильно выполнить самого простого поручения, но его самого два года назад бросила жена, сердце у него доброе и он как никто способен понять чужое горе…-- --Качество видео: BDRip
Формат видео: AVI
Видео: XviD, 704x304, 24 fps, 2151 kbps
Аудио: AC3, 48 kHz, 6 ch, 448 kbps (русский, многоголосый)

MediaInfo

General
Complete name : Uzhin.S.Pridurkom.1998.RERIP.RUS.BDRip.XviD.AC3.-HELLYWOOD.avi
Format : AVI
Format/Info : Audio Video Interleave
File size : 1.46 GiB
Duration : 1h 20mn
Overall bit rate : 2 608 Kbps
Movie name : Ужин с придурком / Le diner de cons (1998)
Director : $in0bi (BDRemux/1080p)
Writing application : VirtualDubModRus 1.5.10.2 (build 2542/release)
Video
ID : 0
Format : MPEG-4 Visual
Format profile : Advanced [email protected]
Format settings, BVOP : 2
Format settings, QPel : No
Format settings, GMC : No warppoints
Format settings, Matrix : Custom
Codec ID : XVID
Codec ID/Hint : XviD
Duration : 1h 20mn
Bit rate : 2 151 Kbps
Width : 704 pixels
Height : 304 pixels
Display aspect ratio : 2.35:1
Frame rate : 24.000 fps
Color space : YUV
Chroma subsampling : 4:2:0
Bit depth : 8 bits
Scan type : Progressive
Compression mode : Lossy
Bits/(Pixel*Frame) : 0.419
Stream size : 1.20 GiB (82%)
Writing library : XviD 65
Audio
ID : 1
Format : AC-3
Format/Info : Audio Coding 3
Mode extension : CM (complete main)
Format settings, Endianness : Big
Codec ID : 2000
Duration : 1h 19mn
Bit rate mode : Constant
Bit rate : 448 Kbps
Channel(s) : 6 channels
Channel positions : Front: L C R, Side: L R, LFE
Sampling rate : 48.0 KHz
Compression mode : Lossy
Stream size : 256 MiB (17%)
Alignment : Split accross interleaves
Interleave, duration : 42 ms (1.00 video frame)
Interleave, preload duration : 500 ms
Title : MVO Пирамида

Скриншот c названием фильма

Скриншоты





Создавать темы 24-Ноя-2015 10:43

[Профиль]  [ЛС] 

ne0d1n

Стаж: 7 лет

Сообщений: 64

Симпатии: 14

Отличная комедия. Спасибо!

Создавать темы 24-Ноя-2015 18:46

[Профиль]  [ЛС] 
Показать сообщения:    
Ответить на тему

Текущее время: 23-Окт 16:51

Часовой пояс: UTC + 5



Вы не можете начинать темы
Вы не можете отвечать на сообщения
Вы не можете редактировать свои сообщения
Вы не можете удалять свои сообщения
Вы не можете голосовать в опросах
Вы не можете прикреплять файлы к сообщениям
Вы не можете скачивать файлы