Игорь Маменко. Юбилей [2011 г., Юмор, SATRip]

Ответить на тему
 

фазилов ®

Стаж: 3 года 8 месяцев

Сообщений: 310

Симпатии: 344

ИГОРЬ МАМЕНКО. ЮБИЛЕЙ
Год выпуска: 2011
Страна: Россия
Жанр: Юмор
Продолжительность: 01:30:29
Описание: Передача посвящена юбилею Игоря Маменко (50 лет).В гостях:В.Винокур, С.Дроботенко, С.Рожкова, Н.Лукинский, Г.Гагуа, Е.Воробей .Много новых и старых шуток, анекдотов, сценок и монологов.
Эфир: 10.04.2011
Качество: SATRip
Формат: AVI
Видео кодек: XviD
Аудио кодек: MP3
Видео: 704x528 (1.33:1), 25 fps, XviD build 50 ~1299 kbps avg, 0.14 bit/pixel
Аудио: 48 kHz, MPEG Layer 3, 2 ch, ~128.00 kbps avg

Media info

[General
Complete name : D:\Мои релизы\Игорь Маменко. Юбилей.avi
Format : AVI
Format/Info : Audio Video Interleave
File size : 931 MiB
Duration : 1h 30mn
Overall bit rate : 1 438 Kbps
Writing application : MEncoder UNKNOWN-4.2.4
Writing library : VirtualDub-MPEG2 build 24600/release
Video
ID : 0
Format : MPEG-4 Visual
Format profile : [email protected]
Format settings, BVOP : No
Format settings, QPel : No
Format settings, GMC : No warppoints
Format settings, Matrix : Default (H.263)
Codec ID : XVID
Codec ID/Hint : XviD
Duration : 1h 30mn
Bit rate : 1 300 Kbps
Width : 704 pixels
Height : 528 pixels
Display aspect ratio : 4:3
Frame rate : 25.000 fps
Color space : YUV
Chroma subsampling : 4:2:0
Bit depth : 8 bits
Scan type : Progressive
Compression mode : Lossy
Bits/(Pixel*Frame) : 0.140
Stream size : 841 MiB (90%)
Writing library : XviD 1.2.1 (UTC 2008-12-04)
Audio
ID : 1
Format : MPEG Audio
Format version : Version 1
Format profile : Layer 3
Mode : Joint stereo
Mode extension : MS Stereo
Codec ID : 55
Codec ID/Hint : MP3
Duration : 1h 30mn
Bit rate mode : Constant
Bit rate : 128 Kbps
Channel(s) : 2 channels
Sampling rate : 48.0 KHz
Compression mode : Lossy
Delay relative to video : 22ms
Stream size : 82.9 MiB (9%)
Alignment : Split accross interleaves
Interleave, duration : 40 ms (1.00 video frame)
Interleave, preload duration : 500 ms

Скриншоты



Последний раз редактировалось: фазилов (2015-11-24 18:43), всего редактировалось 1 раз

Создавать темы 24-Ноя-2015 18:35

[Профиль]  [ЛС] 

фазилов ®

Стаж: 3 года 8 месяцев

Сообщений: 310

Симпатии: 344

ac Возможны перерывы в раздаче в связи с частыми отключениями электроэнергии. ac
TEREDO включён

Создавать темы 24-Ноя-2015 18:38

[Профиль]  [ЛС] 
Показать сообщения:    
Ответить на тему

Текущее время: 21-Окт 02:40

Часовой пояс: UTC + 5



Вы не можете начинать темы
Вы не можете отвечать на сообщения
Вы не можете редактировать свои сообщения
Вы не можете удалять свои сообщения
Вы не можете голосовать в опросах
Вы не можете прикреплять файлы к сообщениям
Вы не можете скачивать файлы