Вишну-Пурана / Vishnu-Puran / Сезон: 1 / Серии: 1-120 из 120 (Рави Чопра) [2003, Эпос, Религия, Игровое кино, DVDRip] (VO)

Ответить на тему
 

medvedrock ®

Стаж: 6 лет

Сообщений: 67

Симпатии: 6

Вишну-Пурана / Vishnu-Puran
Год выпуска: 2003
Страна: Индия
Жанр: Эпос, Религия, Игровое кино
Продолжительность: 40 минут
Перевод: Профессиональный одноголосый закадровый
Русские субтитры: нет
Режиссёр: Рави Чопра
В ролях: Нитиша Бхарадваджа, Нитиш Бхардвадж, Арджуна, Сурендра Пал и др.
Описание: Одноименная экранизация великого древнего эпоса, поставленная Рави Чопрой, режиссером знаменитого сериала Махабхараты. Увлекательнейшие и поучительные истории о бессмертных героях, царях и божественных воплощениях ведической эпохи - Дхруве, Прахладе, Бали, Паршураме и др.
Вишну Пурана - одна из наиболее известных Пуран, сохранившаяся до наших дней. Она повествует о воплощениях (Аватарах) Господа Вишну, приходивших на Землю в разные эпохи: Матсья, Вараха, Нрисимха, Вамана, Паршурама, Рама...
Доп. информация: В этом релизе исправлены недостатки предыдущих релизов:
- Добавлены отсутствующие серии и фрагменты серий.
- Исправлена синхронизация звука и видео.
- Отсутствует чёрная рамка.
- Исправлена нумерация серий.
Описание всех серий на английском: http://en.wikipedia.org/wiki/Vishnu_Puran_(TV_series)
Качество: DVDRip
Формат: MP4
Видео кодек: H.264
Аудио кодек: ААС
Видео: MPEG4 Video (H264) 400x304 25fps 264kbps [V: English [eng] (h264 constrained baseline L3.
Аудио: AAC 44100Hz stereo 127kbps [A: SoundHandler (aac, 44100 Hz, stereo, 127 kb/s)]

MediaInfo

General
Complete name : E:Vishnu Purana\Вишну пурана (Р.Чопра 2003) - серия 13.mp4
Format : MPEG-4
Format profile : Base Media
Codec ID : isom
File size : 108 MiB
Duration : 38mn 8s
Overall bit rate mode : Variable
Overall bit rate : 396 Kbps
Encoded date : UTC 1970-01-01 00:00:00
Tagged date : UTC 1970-01-01 00:00:00
Writing application : Lavf52.40.0
Video
ID : 1
Format : AVC
Format/Info : Advanced Video Codec
Format profile : [email protected]
Format settings, CABAC : No
Format settings, ReFrames : 1 frame
Codec ID : avc1
Codec ID/Info : Advanced Video Coding
Duration : 38mn 8s
Bit rate : 264 Kbps
Nominal bit rate : 240 Kbps
Width : 400 pixels
Height : 304 pixels
Display aspect ratio : 4:3
Frame rate mode : Constant
Frame rate : 25.000 fps
Color space : YUV
Chroma subsampling : 4:2:0
Bit depth : 8 bits
Scan type : Progressive
Bits/(Pixel*Frame) : 0.087
Stream size : 72.0 MiB (67%)
Writing library : x264 core 79
Encoding settings : cabac=0 / ref=1 / deblock=1:0:0 / analyse=0x1:0x131 / me=tesa / subme=9 / psy=1 / psy_rd=1.0:0.0 / mixed_ref=0 / me_range=24 / chroma_me=1 / trellis=0 / 8x8dct=0 / cqm=0 / deadzone=21,11 / chroma_qp_offset=-2 / threads=24 / nr=0 / decimate=1 / mbaff=0 / constrained_intra=0 / bframes=0 / wpredp=0 / keyint=250 / keyint_min=25 / scenecut=40 / rc_lookahead=40 / rc=cbr / mbtree=1 / bitrate=240 / ratetol=16.7 / qcomp=0.60 / qpmin=10 / qpmax=51 / qpstep=4 / vbv_maxrate=10000 / vbv_bufsize=10000 / ip_ratio=1.41 / aq=1:1.00
Language : English
Encoded date : UTC 1970-01-01 00:00:00
Tagged date : UTC 1970-01-01 00:00:00
Audio
ID : 2
Format : AAC
Format/Info : Advanced Audio Codec
Format profile : LC
Codec ID : 40
Duration : 38mn 7s
Bit rate mode : Variable
Bit rate : 128 Kbps
Channel(s) : 2 channels
Channel positions : Front: L R
Sampling rate : 44.1 KHz
Compression mode : Lossy
Stream size : 34.9 MiB (32%)
Encoded date : UTC 1970-01-01 00:00:00
Tagged date : UTC 1970-01-01 00:00:00

Скриншоты









Создавать темы 25-Ноя-2015 21:58

[Профиль]  [ЛС] 
Показать сообщения:    
Ответить на тему

Текущее время: 19-Ноя 11:59

Часовой пояс: UTC + 5



Вы не можете начинать темы
Вы не можете отвечать на сообщения
Вы не можете редактировать свои сообщения
Вы не можете удалять свои сообщения
Вы не можете голосовать в опросах
Вы не можете прикреплять файлы к сообщениям
Вы не можете скачивать файлы