Франкенштейн Мэри Шелли / Mary Shelley's Frankenstein (Кеннет Брэна / Kenneth Branagh) [1994, США, Япония, ужасы, фантастика, драма, мелодрама, BDRip] Dub

Ответить на тему
 

beshka666 ®

Стаж: 2 года 2 месяца

Сообщений: 34

Симпатии: 20

Франкенштейн / Frankenstein
Страна: США, Япония
Жанр: ужасы, фантастика, драма, мелодрама
Год выпуска: 1994
Продолжительность: 02:03:10
Перевод: Профессиональный (дублированный) (LBS)
Cубтитры: нет
Режиссер: Кеннет Брана
В ролях: Роберт Де Ниро, Кеннет Брана, Том Халс, Хелена Бонем Картер, Эйдан Куинн, Иэн Холм, Ричард Брирс, Джон Клиз, Роберт Харди, Шери Лунги
Описание: Экранизация знаменитого готического романа Мэри Шелли о чудовище, созданном гениальным доктором Франкенштейном
Доп. информация: Этот фильм признан критиками самой страшной из всех киноверсий книги. Продюсер фильма Френсис Коппола и режиссер Кеннет Брана, признанные мастера жанра создали по-настоящему гипнотическое зрелище о похождениях ужасного монстра, в роли которого выступил Роберт Де Ниро, еще раз продемонстрировавший свой уникальный дар — завораживать зрителей и заставлять трепетать от страха их сердца.
Качество видео: BDRip
Формат видео: AVI
Видео: 720x384 (1.88:1), 23.976 fps, XviD build 73 ~1233 kbps avg, 0.19 bit/pixel
Аудио: 48 kHz, AC3 Dolby Digital, 3/2 (L,C,R,l,r) + LFE ch, ~448 kbps

MediaInfo

General
Complete name : D:\кино\Frankenstein.1994.BDRip.Dub_by_LBS.avi
Формат : AVI
Формат/Информация : Audio Video Interleave
Размер файла : 1,45 Гбайт
Продолжительность : 2 ч. 3 м.
Общий поток : 1691 Кбит/сек
Режиссёр : Last Boy Scout
Программа кодирования : VirtualDubMod 1.5.10.3 | www.virtualdub-fr.org || (build 2550/release)
Правообладатель : rutracker.org 27.12.2013
Примечание : BDRip Dub
Видео
Идентификатор : 0
Формат : MPEG-4 Visual
Профиль формата : Advanced [email protected]
Параметр BVOP формата : 1
Параметр QPel формата : Нет
Параметр GMC формата : Без точки перехода
Параметр матрицы формата : Выборочная
Идентификатор кодека : XVID
Идентификатор кодека/Подсказка : XviD
Продолжительность : 2 ч. 3 м.
Битрейт : 1234 Кбит/сек
Ширина : 720 пикселей
Высота : 384 пикселя
Соотношение сторон : 1,85:1
Частота кадров : 23,976 кадра/сек
Цветовое пространство : YUV
Субдискретизация насыщенности : 4:2:0
Битовая глубина : 8 бит
Тип развёртки : Прогрессивная
Метод сжатия : С потерями
Бит/(Пиксели*Кадры) : 0.186
Размер потока : 1,06 Гбайт (73%)
Библиотека кодирования : XviD 73
Аудио
Идентификатор : 1
Формат : AC-3
Формат/Информация : Audio Coding 3
Расширение режима : CM (complete main)
Параметр Endianness формата : Big
Идентификатор кодека : 2000
Продолжительность : 2 ч. 3 м.
Вид битрейта : Постоянный
Битрейт : 448 Кбит/сек
Каналы : 6 каналов
Расположение каналов : Front: L C R, Side: L R, LFE
Частота : 48,0 КГц
Битовая глубина : 16 бит
Метод сжатия : С потерями
Размер потока : 395 Мбайт (26%)
Выравнивание : Разделение по промежуткам
Продолжительность промежутка : 42 мс. (1,00 видеокадр)
Время предзагрузки промежутка : 500 мс.

Скриншот c названием фильма

Скриншоты





Последний раз редактировалось: beshka666 (2017-08-03 12:34), всего редактировалось 3 раз(а)

Создавать темы 26-Ноя-2015 15:39

[Профиль]  [ЛС] 

beshka666 ®

Стаж: 2 года 2 месяца

Сообщений: 34

Симпатии: 20

---


Последний раз редактировалось: beshka666 (2017-08-03 12:35), всего редактировалось 1 раз

Создавать темы 27-Ноя-2015 14:02

[Профиль]  [ЛС] 

skyangel92

Стаж: 5 лет 2 месяца

Сообщений: 6

Люди добрые дайте раздачу

Создавать темы 06-Июн-2017 17:17

[Профиль]  [ЛС] 
Показать сообщения:    
Ответить на тему

Текущее время: 18-Ноя 13:37

Часовой пояс: UTC + 5



Вы не можете начинать темы
Вы не можете отвечать на сообщения
Вы не можете редактировать свои сообщения
Вы не можете удалять свои сообщения
Вы не можете голосовать в опросах
Вы не можете прикреплять файлы к сообщениям
Вы не можете скачивать файлы