Лощина / The Hollow (Шелдон Уилсон) [2015, США, Ужасы, HDRip] (VO : [Хихикающий доктор]) (Sub Rus)

Ответить на тему
 

lucky999 ®

Стаж: 2 года 3 месяца

Сообщений: 32

Симпатии: 43

Лощина / The Hollow
Страна: США
Жанр: Ужасы
Год выпуска: 2015
Продолжительность: 01:25:02
Перевод: Любительский (одноголосый) Доп. инфо о переводе [Хихикающий доктор]
Cубтитры: русские
Режиссер: Шелдон Уилсон
В ролях: Гари Чок, Сара Дагдэйл, Ричард Хэрмон, Стефани Хант, Хилари Джардин, Лэйн МакНил, Алиша Ньютон, Дилан Плэйфейр, Дебора Кара Ангер, Джонатан Уайтселл
Описание: В канун Хэллоуина на маленький город надвигается убийственный буря. Вместе с темными тучами, сгущающимися над островом, приходит проклятие. Три сестры должны бороться, чтобы остаться в живых этой темной ночью. Но это не то, что вы можете убить. Надо лишь попробовать выжить.
Доп. информация: IMDB рейтинг: 4.4/10
КиноПоиск рейтинг: 0.0/10
Качество видео: WEB-DLRip
Формат видео: AVI
Видео: Xvid 720x400 23.98fps 1857kbps
Аудио: Dolby AC3 44100Hz stereo 192kbps [A: xixidok (ac3, 44100 Hz, stereo, 192 kb/s)]
Аудио 2: Dolby AC3 48000Hz 6ch 384kbps [A: ac3, 48000 Hz, 5.1, 384 kb/s]

MediaInfo

General
Complete name : E:\torrent\The.Hollow.2015.xixidok.WEB-DLRip.1450.ExKinoRay.avi
Format : AVI
Format/Info : Audio Video Interleave
File size : 1.45 GiB
Duration : 1h 25mn
Overall bit rate : 2 448 Kbps
Writing application : VirtualDubMod 1.5.10.2 (build 2540/release)
Writing library : VirtualDubMod build 2540/release
Copyright : ExKinoRay
Video
ID : 0
Format : MPEG-4 Visual
Format profile : Advanced [email protected]
Format settings, BVOP : 1
Format settings, QPel : No
Format settings, GMC : No warppoints
Format settings, Matrix : Custom
Codec ID : XVID
Codec ID/Hint : XviD
Duration : 1h 25mn
Bit rate : 1 858 Kbps
Width : 720 pixels
Height : 400 pixels
Display aspect ratio : 16:9
Frame rate : 23.976 fps
Color space : YUV
Chroma subsampling : 4:2:0
Bit depth : 8 bits
Scan type : Progressive
Compression mode : Lossy
Bits/(Pixel*Frame) : 0.269
Stream size : 1.10 GiB (76%)
Writing library : XviD 73
Audio #1
ID : 1
Format : AC-3
Format/Info : Audio Coding 3
Mode extension : CM (complete main)
Format settings, Endianness : Big
Codec ID : 2000
Duration : 1h 25mn
Bit rate mode : Constant
Bit rate : 192 Kbps
Channel(s) : 2 channels
Channel positions : Front: L R
Sampling rate : 44.1 KHz
Compression mode : Lossy
Stream size : 117 MiB (8%)
Alignment : Split accross interleaves
Interleave, duration : 42 ms (1.00 video frame)
Interleave, preload duration : 500 ms
Title : xixidok
Audio #2
ID : 2
Format : AC-3
Format/Info : Audio Coding 3
Mode extension : CM (complete main)
Format settings, Endianness : Big
Codec ID : 2000
Duration : 1h 25mn
Bit rate mode : Constant
Bit rate : 384 Kbps
Channel(s) : 6 channels
Channel positions : Front: L C R, Side: L R, LFE
Sampling rate : 48.0 KHz
Compression mode : Lossy
Stream size : 234 MiB (16%)
Alignment : Split accross interleaves
Interleave, duration : 42 ms (1.00 video frame)
Interleave, preload duration : 500 ms

Скриншот c названием фильма

Скриншоты

Создавать темы 26-Ноя-2015 18:08

[Профиль]  [ЛС] 

AlenLegion

Стаж: 5 лет 8 месяцев

Сообщений: 40

Симпатии: 1

Исправь, там нет субтитры.

Создавать темы 27-Ноя-2015 04:49

[Профиль]  [ЛС] 

Mr.HuseyiN

Стаж: 4 года 4 месяца

Сообщений: 62

Симпатии: 8

вот что будет со спичками играть

Создавать темы 27-Ноя-2015 07:29

[Профиль]  [ЛС] 
Показать сообщения:    
Ответить на тему

Текущее время: 11-Дек 12:19

Часовой пояс: UTC + 5



Вы не можете начинать темы
Вы не можете отвечать на сообщения
Вы не можете редактировать свои сообщения
Вы не можете удалять свои сообщения
Вы не можете голосовать в опросах
Вы не можете прикреплять файлы к сообщениям
Вы не можете скачивать файлы