Преступная деятельность / Criminal Activities (Джеки Эрл Хейли / Jackie Earle Haley) [2015, США, триллер, драма, криминал, HDRip] (Dub : Одноголосый закадровый (VANO)) (Sub Eng + Original Eng)

Ответить на тему
 

xasanhoji1985 ®

Стаж: 3 года 11 месяцев

Сообщений: 7

Симпатии: 10

Преступная деятельность / Criminal Activities
Страна: США
Жанр: триллер, драма, криминал
Год выпуска: 2015
Продолжительность: 01:33:54
Перевод: Профессиональный (дублированный) Доп. инфо о переводе Одноголосый закадровый (VANO)
Cубтитры: английские
Оригинальная аудиодорожка: английский
Режиссер: Джеки Эрл Хейли / Jackie Earle Haley
В ролях: Дэн Стивенс, Джон Траволта, Джеки Эрл Хейли, Майкл Питт, Эди Гатеги, Кристофер Эбботт, Роб Браун, Лиза Катара, Трэвис Аарон, Морган Волк и др
Описание: Четверо молодых людей инвестировали деньги в рискованное дело, которое приводит их к конфликту с мафией
Качество видео: HDRip
Формат видео: AVI
Видео: 704x288 (2.44:1), 23.976 fps, XviD build 73 ~2000 kbps avg, 0.41 bit/pixel
Аудио: 48 kHz, AC3 Dolby Digital, 2/0 (L,R) ch, ~192.00 kbps avg (VO)
Аудио 2: 48 kHz, AC3 Dolby Digital, 3/2 (L,C,R,l,r) + LFE ch, ~384.00 kbps avg (Eng) отдельной дорогой
Формат субтитров: softsub (SRT)

MediaInfo

Общее
Полное имя : C:\Преступная деятельность (2015)\Преступная деятельность (2015) VO.avi
Формат : AVI
Формат/Информация : Audio Video Interleave
Размер файла : 1,43 Гбайт
Продолжительность : 1 ч. 33 м.
Общий поток : 2179 Кбит/сек
Программа кодирования : VirtualDubModRus 1.5.10.2 (build 2542/release)
Библиотека кодирования : VirtualDubMod build 2542/release
Видео
Идентификатор : 0
Формат : MPEG-4 Visual
Профиль формата : Advanced [email protected]
Параметр BVOP формата : 1
Параметр QPel формата : Нет
Параметр GMC формата : Без точки перехода
Параметр матрицы формата : Выборочная
Идентификатор кодека : DX50
Идентификатор кодека/Подсказка : DivX 5
Продолжительность : 1 ч. 33 м.
Битрейт : 1978 Кбит/сек
Ширина : 704 пикселя
Высота : 288 пикселей
Соотношение сторон : 2,40:1
Частота кадров : 23,976 кадра/сек
Цветовое пространство : YUV
Субдискретизация насыщенности : 4:2:0
Битовая глубина : 8 бит
Тип развёртки : Прогрессивная
Метод сжатия : С потерями
Бит/(Пиксели*Кадры) : 0.407
Размер потока : 1,30 Гбайт (91%)
Библиотека кодирования : XviD 73
Аудио
Идентификатор : 1
Формат : AC-3
Формат/Информация : Audio Coding 3
Расширение режима : CM (complete main)
Параметр Endianness формата : Big
Идентификатор кодека : 2000
Продолжительность : 1 ч. 33 м.
Вид битрейта : Постоянный
Битрейт : 192 Кбит/сек
Каналы : 2 канала
Расположение каналов : Front: L R
Частота : 48,0 КГц
Битовая глубина : 16 бит
Метод сжатия : С потерями
Размер потока : 129 Мбайт (9%)
Выравнивание : Разделение по промежуткам
Продолжительность промежутка : 42 мс. (1,00 видеокадр)
Время предзагрузки промежутка : 500 мс.

Скриншоты

Создавать темы 26-Ноя-2015 21:17

[Профиль]  [ЛС] 

Grock

Стаж: 6 лет 9 месяцев

Сообщений: 637

Симпатии: 113

xasanhoji1985, Переделайте скриншоты, должны быть оригинального размера указанного в тех.данных картины - 704x288

Создавать темы 28-Ноя-2015 01:31

[Профиль]  [ЛС] 

sancho_84

Стаж: 6 лет 10 месяцев

Сообщений: 16

Симпатии: 1

качаем!!! пришел на помощь!!))) Афтар жжет добавил релиз а сам за спичками ушел)))

Создавать темы 11-Дек-2015 00:55

[Профиль]  [ЛС] 
Показать сообщения:    
Ответить на тему

Текущее время: 23-Ноя 10:45

Часовой пояс: UTC + 5



Вы не можете начинать темы
Вы не можете отвечать на сообщения
Вы не можете редактировать свои сообщения
Вы не можете удалять свои сообщения
Вы не можете голосовать в опросах
Вы не можете прикреплять файлы к сообщениям
Вы не можете скачивать файлы