Бал / Le bal (Этторе Скола) [1983, Франция, Италия, Алжир, мюзикл, история, DVDRip]

Ответить на тему
 

lotto ®

Стаж: 7 лет 7 месяцев

Сообщений: 221

Симпатии: 409

Бал / Le bal-- Страна: Франция, Италия, Алжир
Жанр: мюзикл, история
Год выпуска: 1983
Продолжительность: 01:47:10
Перевод: Не требуется
Cубтитры: нет--Режиссер: Этторе Скола
В ролях: Этьен Гишар, Режис Буке, Франческо Де Роза, Арно ЛеКарпентье, Лилиан Дельваль, Мартина Шовен, Даниэль Ричард, Нани Ноэль, Азиз Арбиа, Марк Берман--Описание: В фильме не говорят ни слова, а только флиртуют и кружатся в танце, ревнуют и мирятся. Сутенеры и фашисты, хиппи и старые девы проводят вечера в небольшом дансинге, а грохот европейской истории, изредка доносящийся с улицы, лишь на мгновения отвлекает их от вечного танца, который и есть жизнь, которая и есть танец.-- --Качество видео: DVDRip
Формат видео: AVI
Видео: XviD, 720x432, 25 fps, 1434 kbps
Аудио: AC3, 48KHz, 6 ch, 384.00 kbps

MediaInfo

General
Complete name : bal [Torrents.ru].avi
Format : AVI
Format/Info : Audio Video Interleave
File size : 1.37 GiB
Duration : 1h 47mn
Overall bit rate : 1 825 Kbps
Writing application : VirtualDubMod 1.5.4.1 (build 2178/release)
Writing library : VirtualDubMod build 2178/release
Video
ID : 0
Format : MPEG-4 Visual
Format profile : Advanced [email protected]
Format settings, BVOP : 1
Format settings, QPel : No
Format settings, GMC : No warppoints
Format settings, Matrix : Custom
Codec ID : XVID
Codec ID/Hint : XviD
Duration : 1h 47mn
Bit rate : 1 434 Kbps
Width : 720 pixels
Height : 432 pixels
Display aspect ratio : 5:3
Frame rate : 25.000 fps
Color space : YUV
Chroma subsampling : 4:2:0
Bit depth : 8 bits
Scan type : Progressive
Compression mode : Lossy
Bits/(Pixel*Frame) : 0.184
Stream size : 1.07 GiB (79%)
Writing library : XviD 1.2.0.dev47 (UTC 2006-11-01)
Audio
ID : 1
Format : AC-3
Format/Info : Audio Coding 3
Mode extension : CM (complete main)
Format settings, Endianness : Big
Codec ID : 2000
Duration : 1h 47mn
Bit rate mode : Constant
Bit rate : 384 Kbps
Channel(s) : 6 channels
Channel positions : Front: L C R, Side: L R, LFE
Sampling rate : 48.0 KHz
Compression mode : Lossy
Stream size : 294 MiB (21%)
Alignment : Split accross interleaves
Interleave, duration : 96 ms (2.40 video frames)
Interleave, preload duration : 96 ms

Скриншот c названием фильма

Скриншоты





Создавать темы 27-Ноя-2015 18:48

[Профиль]  [ЛС] 
Показать сообщения:    
Ответить на тему

Текущее время: 17-Авг 08:50

Часовой пояс: UTC + 5



Вы не можете начинать темы
Вы не можете отвечать на сообщения
Вы не можете редактировать свои сообщения
Вы не можете удалять свои сообщения
Вы не можете голосовать в опросах
Вы не можете прикреплять файлы к сообщениям
Вы не можете скачивать файлы