Терраса / La terrazza (Этторе Скола) [1979, Италия, Франция, драма, DVDRip] (MVO)

Ответить на тему
 

lotto ®

Стаж: 7 лет 10 месяцев

Сообщений: 221

Симпатии: 409

Терраса / La terrazza-- Страна: Италия, Франция
Жанр: драма
Год выпуска: 1979
Продолжительность: 02:30:22
Перевод: Профессиональный (многоголосый закадровый)
Cубтитры: нет--Режиссер: Этторе Скола
В ролях: Витторио Гассман, Уго Тоньяцци, Жан-Луи Трентиньян, Марчелло Мастроянни, Стефания Сандрелли, Карла Гравина, Омбретта Колли, Галеаццо Бенти, Милена Вукотич, Стефано Сатта Флорес--Описание: Картина о потерянных иллюзиях поколения. Интеллектуалы собрались на террасе дома в Риме для бесцельного времяпрепровождения и разговоров. Они утратили все демократические идеалы своей юности, забыли о том, какую радость принесла свобода и избавление от фашистской диктатуры. Они потеряли многие надежды и мечты. В этой жизни их ждала только апатия, бесцельное существование, духовная смерть. Или преждевременный уход из жизни после инфаркта. Проводив в последний путь умершего «счастливчика», который нашёл покой в мире ином, они вновь соберутся на террасе. И все будет продолжаться по-прежнему.-- --Качество видео: DVDRip
Формат видео: AVI
Видео: Xvid, 640x352, 25fps, 1223kbps
Аудио: MP3, 48000Hz, mono, 64kbps (русский, многоголосый)
Аудио 2: MP3 48000Hz mono 80kbps (оригинал)

MediaInfo

General
Complete name : Terrasa.1980.(Rus,Ita).Kinoshniki.&.Sharereactor.ru.avi
Format : AVI
Format/Info : Audio Video Interleave
File size : 1.45 GiB
Duration : 2h 30mn
Overall bit rate : 1 382 Kbps
Writing application : VirtualDubMod 1.5.10.2 (build 2542/release)
Writing library : VirtualDubMod build 2542/release
Video
ID : 0
Format : MPEG-4 Visual
Format profile : Advanced [email protected]
Format settings, BVOP : 2
Format settings, QPel : No
Format settings, GMC : No warppoints
Format settings, Matrix : Default (H.263)
Codec ID : XVID
Codec ID/Hint : XviD
Duration : 2h 30mn
Bit rate : 1 223 Kbps
Width : 640 pixels
Height : 352 pixels
Display aspect ratio : 16:9
Frame rate : 25.000 fps
Color space : YUV
Chroma subsampling : 4:2:0
Bit depth : 8 bits
Scan type : Progressive
Compression mode : Lossy
Bits/(Pixel*Frame) : 0.217
Stream size : 1.28 GiB (89%)
Writing library : XviD 0039 build=2005.09.16 (UTC 2005-09-16)
Audio #1
ID : 1
Format : MPEG Audio
Format version : Version 1
Format profile : Layer 3
Codec ID : 55
Codec ID/Hint : MP3
Duration : 2h 30mn
Bit rate mode : Constant
Bit rate : 64.0 Kbps
Channel(s) : 1 channel
Sampling rate : 48.0 KHz
Compression mode : Lossy
Stream size : 68.8 MiB (5%)
Alignment : Aligned on interleaves
Interleave, duration : 40 ms (1.00 video frame)
Interleave, preload duration : 504 ms
Title : Russian
Writing library : LAME3.97
Encoding settings : -m m -V 4 -q 2 -lowpass 16.5 -b 64
Audio #2
ID : 2
Format : MPEG Audio
Format version : Version 1
Format profile : Layer 3
Codec ID : 55
Codec ID/Hint : MP3
Duration : 2h 30mn
Bit rate mode : Constant
Bit rate : 80.0 Kbps
Channel(s) : 1 channel
Sampling rate : 48.0 KHz
Compression mode : Lossy
Stream size : 86.0 MiB (6%)
Alignment : Aligned on interleaves
Interleave, duration : 40 ms (1.00 video frame)
Interleave, preload duration : 504 ms
Title : Italian
Writing library : LAME3.97
Encoding settings : -m m -V 4 -q 2 -lowpass 20.3 -b 80

Скриншот c названием фильма

Скриншоты





Создавать темы 27-Ноя-2015 19:06

[Профиль]  [ЛС] 

vlacom

Стаж: 4 года 4 месяца

Сообщений: 44

Симпатии: 21

lotto, беру не думая, спасибо за фильм

Создавать темы 27-Ноя-2015 20:49

[Профиль]  [ЛС] 
Показать сообщения:    
Ответить на тему

Текущее время: 24-Ноя 10:51

Часовой пояс: UTC + 5



Вы не можете начинать темы
Вы не можете отвечать на сообщения
Вы не можете редактировать свои сообщения
Вы не можете удалять свои сообщения
Вы не можете голосовать в опросах
Вы не можете прикреплять файлы к сообщениям
Вы не можете скачивать файлы