Мажестик / The majestic (Фрэнк Дарабонт) [2001, Австралия, США, Мелодрама, DVDRip] (Dub) (Original Rus)

Ответить на тему
 

azioz ®

Стаж: 7 лет 2 месяца

Сообщений: 9

Мажестик / The majestic
Страна: Австралия, США
Жанр: Мелодрама
Год выпуска: 2001
Продолжительность: 2:29:04
Перевод: Профессиональный (дублированный)
Cубтитры: нет
Оригинальная аудиодорожка: русский
Режиссер: Фрэнк Дарабонт
В ролях: Боб Бэлабан, Брент Бриско, Джерри Блэк, Джефри ДеМанн, Джим Керри, Дэвид Огден Стайерз, Лори Холден, Мартин Ландау, Рон Рифкин, Хэл Холбрук
Описание: История о человеке, ищущем самого себя. Джим Кэрри играет роль Питера, голливудского сценариста, который случайно попадает в маленький городок Лоусон в Калифорнии: после автомобильной аварии он полностью теряет память.
Его принимают за пропавшего без вести героя Второй мировой. Питер, который сам поверил в это, берется за восстановление заброшенного городского кинотеатра. Невеста героя, которая ждала его несколько лет, также не замечает, что рядом с ней — двойник. Прекрасная жизнь основана на прекрасном обмане. Но правда, рано или поздно, откроется….
Качество видео: DVDRip
Формат видео: AVI
Видео: XviD,720x400,16:9,25.000 ,1 268 Kbps
Аудио: Dolby AC3 48000Hz 5.1ch 384kbps
Аудио 2: Dolby AC3 48000Hz 5.1ch 384kbps

MediaInfo

Duration : 2h 29mn
Overall bit rate : 2 042 Kbps
Writing application : VirtualDubMod 1.6.0.0 SURROUND (build 2560/release)
Writing library : VirtualDubMod build 2560/release
Video
ID : 0
Format : MPEG-4 Visual
Format profile : Advanced [email protected]
Format settings, BVOP : 1
Format settings, QPel : No
Format settings, GMC : No warppoints
Format settings, Matrix : Default (MPEG)
Codec ID : XVID
Codec ID/Hint : XviD
Duration : 2h 29mn
Bit rate : 1 268 Kbps
Width : 720 pixels
Height : 400 pixels
Display aspect ratio : 16:9
Frame rate : 25.000 fps
Color space : YUV
Chroma subsampling : 4:2:0
Bit depth : 8 bits
Scan type : Progressive
Compression mode : Lossy
Bits/(Pixel*Frame) : 0.176
Stream size : 1.32 GiB (62%)
Writing library : XviD 1.2.0.dev47 (UTC 2006-11-01)
Audio #1
ID : 1
Format : AC-3
Format/Info : Audio Coding 3
Mode extension : CM (complete main)
Format settings, Endianness : Big
Codec ID : 2000
Duration : 2h 26mn
Bit rate mode : Constant
Bit rate : 384 Kbps
Channel(s) : 6 channels
Channel positions : Front: L C R, Side: L R, LFE
Sampling rate : 48.0 KHz
Compression mode : Lossy
Stream size : 403 MiB (19%)
Alignment : Split accross interleaves
Interleave, duration : 41 ms (1.02 video frame)
Interleave, preload duratio : 500 ms
Audio #2
ID : 2
Format : AC-3
Format/Info : Audio Coding 3
Mode extension : CM (complete main)
Format settings, Endianness : Big
Codec ID : 2000
Duration : 2h 26mn
Bit rate mode : Constant
Bit rate : 384 Kbps
Channel(s) : 6 channels
Channel positions : Front: L C R, Side: L R, LFE
Sampling rate : 48.0 KHz
Compression mode : Lossy
Stream size : 403 MiB (19%)
Alignment : Aligned on interleaves
Interleave, duration : 41 ms (1.02 video frame)
Interleave, preload duratio : 512 ms

Скриншоты

Создавать темы 27-Ноя-2015 19:20

[Профиль]  [ЛС] 
Показать сообщения:    
Ответить на тему

Текущее время: 12-Дек 15:17

Часовой пояс: UTC + 5



Вы не можете начинать темы
Вы не можете отвечать на сообщения
Вы не можете редактировать свои сообщения
Вы не можете удалять свои сообщения
Вы не можете голосовать в опросах
Вы не можете прикреплять файлы к сообщениям
Вы не можете скачивать файлы