Без границ (Карен Оганесян, Резо Гигинеишвили, Роман Прыгунов) [2015, комедия, мелодрама, WEB-DLRip]

Ответить на тему
 

inkus ®

Стаж: 7 лет 4 месяца

Сообщений: 50

Симпатии: 39

Без границ
Жанр: комедия, мелодрама
Год выпуска: 2015
Продолжительность: 01:36:02
Режиссёр: Карен Оганесян, Резо Гигинеишвили, Роман Прыгунов
В ролях: Инна Чурикова, Олег Басилашвили, Александр Адабашьян, Анна Чиповская, Иван Янковский, Александр Паль, Милош Бикович, Мария Шалаева, Равшана Куркова, Наталия Вдовина
Описание: События картины начинаются в московском аэропорту, откуда главные герои отправляются в захватывающие путешествия к живописным горным долинам Армении, утопающим в зелени улочкам Тбилиси и праздничным огням новогодней Москвы навстречу любви — яркой и страстной, наивной и нелепой, трогательной и грустной, счастливой и безрассудной, которая не знает границ и условностей, возраста и национальностей.
Качество видео: WEB-DLRip
Формат видео: AVI
Видео: XviD,1783 kb/s, 720x304
Аудио: AC3, 384 kb/s (6 ch)

MediaInfo

Общее
Полное имя : F:\1 мои раздачи торент\без границ.avi
Формат : AVI
Формат/Информация : Audio Video Interleave
Размер файла : 1,46 Гбайт
Продолжительность : 1 ч. 36 м.
Общий поток : 2176 Кбит/сек
Программа кодирования : VirtualDubMod 1.5.10.3 | www.virtualdub-fr.org || (build 2550/release)
Библиотека кодирования : VirtualDubMod build 2550/release
Видео
Идентификатор : 0
Формат : MPEG-4 Visual
Профиль формата : Advanced [email protected]
Параметр BVOP формата : 2
Параметр QPel формата : Нет
Параметр GMC формата : Без точки перехода
Параметр матрицы формата : Default (MPEG)
Идентификатор кодека : XVID
Идентификатор кодека/Подсказка : XviD
Продолжительность : 1 ч. 36 м.
Битрейт : 1783 Кбит/сек
Ширина : 720 пикселей
Высота : 304 пикселя
Соотношение сторон : 2,35:1
Частота кадров : 24,000 кадра/сек
Цветовое пространство : YUV
Субдискретизация насыщенности : 4:2:0
Битовая глубина : 8 бит
Тип развёртки : Прогрессивная
Метод сжатия : С потерями
Бит/(Пиксели*Кадры) : 0.339
Размер потока : 1,20 Гбайт (82%)
Библиотека кодирования : XviD 1.2.1 (UTC 2008-12-04)
Аудио
Идентификатор : 1
Формат : AC-3
Формат/Информация : Audio Coding 3
Расширение режима : CM (complete main)
Параметр Endianness формата : Big
Идентификатор кодека : 2000
Продолжительность : 1 ч. 36 м.
Вид битрейта : Постоянный
Битрейт : 384 Кбит/сек
Каналы : 6 каналов
Расположение каналов : Front: L C R, Side: L R, LFE
Частота : 48,0 КГц
Битовая глубина : 16 бит
Метод сжатия : С потерями
Размер потока : 264 Мбайт (18%)
Выравнивание : Разделение по промежуткам
Продолжительность промежутка : 42 мс. (1,00 видеокадр)
Время предзагрузки промежутка : 500 мс.

Скриншоты






Последний раз редактировалось: inkus (2015-11-29 13:26), всего редактировалось 1 раз

Создавать темы 28-Ноя-2015 14:24

[Профиль]  [ЛС] 

Bigi

Стаж: 5 лет 5 месяцев

Сообщений: 7

Отличный фильм! Рекомендую посмотреть! Легкий, смотрится легко! И совершенно не скучный!

Создавать темы 18-Дек-2015 18:51

[Профиль]  [ЛС] 
Показать сообщения:    
Ответить на тему

Текущее время: 22-Авг 10:31

Часовой пояс: UTC + 5



Вы не можете начинать темы
Вы не можете отвечать на сообщения
Вы не можете редактировать свои сообщения
Вы не можете удалять свои сообщения
Вы не можете голосовать в опросах
Вы не можете прикреплять файлы к сообщениям
Вы не можете скачивать файлы